Поиск

(Soul, R&B) [CD] Ray Charles - Eight Classic Albums (4 CD) - 2011, FLAC (tracks+.cue), lossless

(Soul, R&B) [CD] Ray Charles - Eight Classic Albums (4 CD) - 2011, FLAC (tracks+.cue), lossless
Треклист:
Ray Charles - Eight Classic Albums (4 CD)

Жанр: Soul, R&B
Носитель: CD
Страна-производитель диска (релиза): UK
Год издания: 2011
Издатель (лейбл): Real Gone Jazz
Номер по каталогу: RGJCD267
Аудиокодек: FLAC (*.flac)
Тип рипа: tracks+.cue
Битрейт аудио: lossless
Продолжительность: 05:01:41
Источник (релизер): ruskaval
Наличие сканов в содержимом раздачи: да 
 
 
 
CD 1
Продолжительность: 01:18:51
Треклист:
01. Ain't That Love (2:54)
02. Drown In My Own Tears (3:22)
03. Come Back Baby (3:07)
04. Sinner's Prayer (3:24)
05. Funny (But I Still Love You) (3:15)
06. Losing Hand (3:12)
07. A Fool For You (3:03)
08. Hallelujah I Love Her So (2:35)
09. Mess Around (2:41)
10. This Little Girl Of Mine (2:33)
11. Mary Ann (2:47)
12. Greenbacks (2:52)
13. Don't You Know (2:57)
14. I Got a Women (2:50)
15. The Ray (3:58)
16. My Melancholy Baby (4:22)
17. Black Coffee (5:31)
18. There's No You (4:47)
19. Doodlin' (5:53)
20. Sweet Sixteen Bars (4:06)
21. I Surrender Dear (5:06)
22. Undecided (3:37)
 
 
Лог создания рипа
Exact Audio Copy V1.0 beta 3 from 29. August 2011
EAC extraction logfile from 22. April 2015, 9:45
Ray Charles / Eight Classic Albums CD1
Used drive : ASUS SDRW-08D2S-U Adapter: 1 ID: 0
Read mode : Secure
Utilize accurate stream : Yes
Defeat audio cache : Yes
Make use of C2 pointers : No
Read offset correction : 6
Overread into Lead-In and Lead-Out : No
Fill up missing offset samples with silence : Yes
Delete leading and trailing silent blocks : No
Null samples used in CRC calculations : Yes
Used interface : Native Win32 interface for Win NT & 2000
Gap handling : Appended to previous track
Used output format : User Defined Encoder
Selected bitrate : 128 kBit/s
Quality : High
Add ID3 tag : No
Command line compressor : C:\Program Files (x86)\Exact Audio Copy\Flac\flac.exe
Additional command line options : -8 -V -T "ARTIST=%artist%" -T "TITLE=%title%" -T "ALBUM=%albumtitle%" -T "DATE=%year%" -T "TRACKNUMBER=%tracknr%" -T "TOTALTRACKS=%numtracks%" -T "GENRE=%genre%" -T "ALBUMARTIST=%albumartist%" -T "ALBUM ARTIST=%albumartist%" -T "COMMENT=EAC Secure Mode, Test & Copy, AccurateRip, FLAC -8" %source%
TOC of the extracted CD
Track | Start | Length | Start sector | End sector
---------------------------------------------------------
1 | 0:00.00 | 2:53.55 | 0 | 13029
2 | 2:53.55 | 3:22.04 | 13030 | 28183
3 | 6:15.59 | 3:06.44 | 28184 | 42177
4 | 9:22.28 | 3:24.28 | 42178 | 57505
5 | 12:46.56 | 3:14.61 | 57506 | 72116
6 | 16:01.42 | 3:11.56 | 72117 | 86497
7 | 19:13.23 | 3:02.62 | 86498 | 100209
8 | 22:16.10 | 2:35.11 | 100210 | 111845
9 | 24:51.21 | 2:41.21 | 111846 | 123941
10 | 27:32.42 | 2:33.08 | 123942 | 135424
11 | 30:05.50 | 2:46.47 | 135425 | 147921
12 | 32:52.22 | 2:52.11 | 147922 | 160832
13 | 35:44.33 | 2:56.59 | 160833 | 174091
14 | 38:41.17 | 2:50.22 | 174092 | 186863
15 | 41:31.39 | 3:57.54 | 186864 | 204692
16 | 45:29.18 | 4:22.11 | 204693 | 224353
17 | 49:51.29 | 5:31.05 | 224354 | 249183
18 | 55:22.34 | 4:46.57 | 249184 | 270690
19 | 60:09.16 | 5:52.43 | 270691 | 297133
20 | 66:01.59 | 4:06.06 | 297134 | 315589
21 | 70:07.65 | 5:06.13 | 315590 | 338552
22 | 75:14.03 | 3:36.72 | 338553 | 354824
Track 1
Filename D:\Subir\01 - Ain't That Love.wav
Pre-gap length 0:00:02.00
Peak level 89.1 %
Extraction speed 2.7 X
Track quality 100.0 %
Test CRC D61DCC38
Copy CRC D61DCC38
Accurately ripped (confidence 5) [0B7EBD40] (AR v2)
Copy OK
Track 2
Filename D:\Subir\02 - Drown in My Own Tears.wav
Peak level 71.5 %
Extraction speed 2.9 X
Track quality 100.0 %
Test CRC EC5600AA
Copy CRC EC5600AA
Accurately ripped (confidence 5) [E9777576] (AR v2)
Copy OK
Track 3
Filename D:\Subir\03 - Come Back Baby.wav
Peak level 74.9 %
Extraction speed 2.4 X
Track quality 99.9 %
Test CRC 0E81EDE3
Copy CRC 0E81EDE3
Accurately ripped (confidence 5) [D1528580] (AR v2)
Copy OK
Track 4
Filename D:\Subir\04 - Sinner's Prayer.wav
Peak level 98.3 %
Extraction speed 3.3 X
Track quality 100.0 %
Test CRC CF56077E
Copy CRC CF56077E
Accurately ripped (confidence 5) [42AC59AA] (AR v2)
Copy OK
Track 5
Filename D:\Subir\05 - Funny (But I Still Love You).wav
Peak level 100.0 %
Extraction speed 3.5 X
Track quality 100.0 %
Test CRC 75BF252B
Copy CRC 75BF252B
Accurately ripped (confidence 5) [C3396D55] (AR v2)
Copy OK
Track 6
Filename D:\Subir\06 - Losing Hand.wav
Peak level 100.0 %
Extraction speed 3.6 X
Track quality 100.0 %
Test CRC BF8A9E0D
Copy CRC BF8A9E0D
Accurately ripped (confidence 5) [6159CC72] (AR v2)
Copy OK
Track 7
Filename D:\Subir\07 - A Fool for You.wav
Peak level 79.1 %
Extraction speed 3.7 X
Track quality 100.0 %
Test CRC 9B43B69E
Copy CRC 9B43B69E
Accurately ripped (confidence 5) [A2D2B829] (AR v2)
Copy OK
Track 8
Filename D:\Subir\08 - Hallelujah I Love Her So.wav
Peak level 90.0 %
Extraction speed 3.7 X
Track quality 100.0 %
Test CRC 6B47C044
Copy CRC 6B47C044
Accurately ripped (confidence 5) [0C4E0444] (AR v2)
Copy OK
Track 9
Filename D:\Subir\09 - Mess Around.wav
Peak level 96.8 %
Extraction speed 3.8 X
Track quality 100.0 %
Test CRC 11A83421
Copy CRC 11A83421
Accurately ripped (confidence 5) [121ACA08] (AR v2)
Copy OK
Track 10
Filename D:\Subir\10 - This Little Girl of Mine.wav
Peak level 91.6 %
Extraction speed 3.9 X
Track quality 100.0 %
Test CRC 750E03FF
Copy CRC 750E03FF
Accurately ripped (confidence 5) [C51371D0] (AR v2)
Copy OK
Track 11
Filename D:\Subir\11 - Mary Ann.wav
Peak level 94.8 %
Extraction speed 3.1 X
Track quality 99.9 %
Test CRC DAEC25CA
Copy CRC DAEC25CA
Accurately ripped (confidence 5) [CF6AE594] (AR v2)
Copy OK
Track 12
Filename D:\Subir\12 - Greenbacks.wav
Peak level 92.4 %
Extraction speed 4.3 X
Track quality 100.0 %
Test CRC 2C4F9D7B
Copy CRC 2C4F9D7B
Accurately ripped (confidence 5) [DD1CDFE4] (AR v2)
Copy OK
Track 13
Filename D:\Subir\13 - Don't You Know.wav
Peak level 76.7 %
Extraction speed 4.4 X
Track quality 100.0 %
Test CRC AE1D4344
Copy CRC AE1D4344
Accurately ripped (confidence 5) [65D10A88] (AR v2)
Copy OK
Track 14
Filename D:\Subir\14 - I Got a Women.wav
Peak level 74.5 %
Extraction speed 3.4 X
Track quality 99.9 %
Test CRC 78CE3D11
Copy CRC 78CE3D11
Accurately ripped (confidence 5) [7814DE34] (AR v2)
Copy OK
Track 15
Filename D:\Subir\15 - The Ray.wav
Peak level 100.0 %
Extraction speed 3.9 X
Track quality 99.9 %
Test CRC 7FEF2DDB
Copy CRC 7FEF2DDB
Accurately ripped (confidence 5) [389F5431] (AR v2)
Copy OK
Track 16
Filename D:\Subir\16 - My Melancholy Baby.wav
Peak level 100.0 %
Extraction speed 5.0 X
Track quality 100.0 %
Test CRC A0A57AD6
Copy CRC A0A57AD6
Accurately ripped (confidence 5) [F7BACED7] (AR v2)
Copy OK
Track 17
Filename D:\Subir\17 - Black Coffee.wav
Peak level 97.7 %
Extraction speed 5.3 X
Track quality 100.0 %
Test CRC 655DC816
Copy CRC 655DC816
Accurately ripped (confidence 5) [A5951693] (AR v2)
Copy OK
Track 18
Filename D:\Subir\18 - There's No You.wav
Peak level 100.0 %
Extraction speed 5.4 X
Track quality 100.0 %
Test CRC 592C1BF2
Copy CRC 592C1BF2
Accurately ripped (confidence 5) [3F0E84F4] (AR v2)
Copy OK
Track 19
Filename D:\Subir\19 - Doodlin'.wav
Peak level 100.0 %
Extraction speed 4.8 X
Track quality 99.9 %
Test CRC 4CAC4A83
Copy CRC 4CAC4A83
Accurately ripped (confidence 5) [04B71F18] (AR v2)
Copy OK
Track 20
Filename D:\Subir\20 - Sweet Sixteen Bars.wav
Peak level 100.0 %
Extraction speed 5.6 X
Track quality 100.0 %
Test CRC F55214B9
Copy CRC F55214B9
Accurately ripped (confidence 5) [2B10158C] (AR v2)
Copy OK
Track 21
Filename D:\Subir\21 - I Surrender Dear.wav
Peak level 100.0 %
Extraction speed 5.8 X
Track quality 100.0 %
Test CRC 4B237EB2
Copy CRC 4B237EB2
Accurately ripped (confidence 5) [EED611C5] (AR v2)
Copy OK
Track 22
Filename D:\Subir\22 - Undecided.wav
Peak level 89.4 %
Extraction speed 3.7 X
Track quality 99.9 %
Test CRC 7B8BDEC8
Copy CRC 7B8BDEC8
Accurately ripped (confidence 5) [06A4B695] (AR v2)
Copy OK
All tracks accurately ripped
No errors occurred
End of status report
---- CUETools DB Plugin V2.1.3
[CTDB TOCID: K2KTl2I4iuhEaHfarUX81MCrO5s-] found, Submit result: K2KTl2I4iuhEaHfarUX81MCrO5s- has been confirmed
[3e996317] (7/8) Accurately ripped
[77ad1f9e] (1/8) No match
==== Log checksum 13436ADFE698DEDFF6D27184D8594CDF8FAADCB4E3FAE4E410045D76FC01F58A ====
 
Содержание индексной карты (.CUE)
REM GENRE Jazz
REM DATE 2011
REM DISCID 50127B16
REM COMMENT "ExactAudioCopy v1.0b3"
PERFORMER "Ray Charles"
TITLE "Eight Classic Albums CD1"
FILE "01 - Ain't That Love.wav" WAVE
TRACK 01 AUDIO
TITLE "Ain't That Love"
PERFORMER "Ray Charles"
FLAGS DCP
INDEX 01 00:00:00
FILE "02 - Drown in My Own Tears.wav" WAVE
TRACK 02 AUDIO
TITLE "Drown in My Own Tears"
PERFORMER "Ray Charles"
FLAGS DCP
INDEX 01 00:00:00
FILE "03 - Come Back Baby.wav" WAVE
TRACK 03 AUDIO
TITLE "Come Back Baby"
PERFORMER "Ray Charles"
FLAGS DCP
INDEX 01 00:00:00
FILE "04 - Sinner's Prayer.wav" WAVE
TRACK 04 AUDIO
TITLE "Sinner's Prayer"
PERFORMER "Ray Charles"
FLAGS DCP
INDEX 01 00:00:00
FILE "05 - Funny (But I Still Love You).wav" WAVE
TRACK 05 AUDIO
TITLE "Funny (But I Still Love You)"
PERFORMER "Ray Charles"
FLAGS DCP
INDEX 01 00:00:00
FILE "06 - Losing Hand.wav" WAVE
TRACK 06 AUDIO
TITLE "Losing Hand"
PERFORMER "Ray Charles"
FLAGS DCP
INDEX 01 00:00:00
FILE "07 - A Fool for You.wav" WAVE
TRACK 07 AUDIO
TITLE "A Fool for You"
PERFORMER "Ray Charles"
FLAGS DCP
INDEX 01 00:00:00
FILE "08 - Hallelujah I Love Her So.wav" WAVE
TRACK 08 AUDIO
TITLE "Hallelujah I Love Her So"
PERFORMER "Ray Charles"
FLAGS DCP
INDEX 01 00:00:00
FILE "09 - Mess Around.wav" WAVE
TRACK 09 AUDIO
TITLE "Mess Around"
PERFORMER "Ray Charles"
FLAGS DCP
INDEX 01 00:00:00
FILE "10 - This Little Girl of Mine.wav" WAVE
TRACK 10 AUDIO
TITLE "This Little Girl of Mine"
PERFORMER "Ray Charles"
FLAGS DCP
INDEX 01 00:00:00
FILE "11 - Mary Ann.wav" WAVE
TRACK 11 AUDIO
TITLE "Mary Ann"
PERFORMER "Ray Charles"
FLAGS DCP
INDEX 01 00:00:00
FILE "12 - Greenbacks.wav" WAVE
TRACK 12 AUDIO
TITLE "Greenbacks"
PERFORMER "Ray Charles"
FLAGS DCP
INDEX 01 00:00:00
FILE "13 - Don't You Know.wav" WAVE
TRACK 13 AUDIO
TITLE "Don't You Know"
PERFORMER "Ray Charles"
FLAGS DCP
INDEX 01 00:00:00
FILE "14 - I Got a Women.wav" WAVE
TRACK 14 AUDIO
TITLE "I Got a Women"
PERFORMER "Ray Charles"
FLAGS DCP
INDEX 01 00:00:00
FILE "15 - The Ray.wav" WAVE
TRACK 15 AUDIO
TITLE "The Ray"
PERFORMER "Ray Charles"
FLAGS DCP
INDEX 01 00:00:00
FILE "16 - My Melancholy Baby.wav" WAVE
TRACK 16 AUDIO
TITLE "My Melancholy Baby"
PERFORMER "Ray Charles"
FLAGS DCP
INDEX 01 00:00:00
FILE "17 - Black Coffee.wav" WAVE
TRACK 17 AUDIO
TITLE "Black Coffee"
PERFORMER "Ray Charles"
FLAGS DCP
INDEX 01 00:00:00
FILE "18 - There's No You.wav" WAVE
TRACK 18 AUDIO
TITLE "There's No You"
PERFORMER "Ray Charles"
FLAGS DCP
INDEX 01 00:00:00
FILE "19 - Doodlin'.wav" WAVE
TRACK 19 AUDIO
TITLE "Doodlin'"
PERFORMER "Ray Charles"
FLAGS DCP
INDEX 01 00:00:00
FILE "20 - Sweet Sixteen Bars.wav" WAVE
TRACK 20 AUDIO
TITLE "Sweet Sixteen Bars"
PERFORMER "Ray Charles"
FLAGS DCP
INDEX 01 00:00:00
FILE "21 - I Surrender Dear.wav" WAVE
TRACK 21 AUDIO
TITLE "I Surrender Dear"
PERFORMER "Ray Charles"
FLAGS DCP
INDEX 01 00:00:00
FILE "22 - Undecided.wav" WAVE
TRACK 22 AUDIO
TITLE "Undecided"
PERFORMER "Ray Charles"
FLAGS DCP
INDEX 01 00:00:00
 
CD 2
Продолжительность: 01:15:26
Треклист:
01. What Would I Do Without You (2:35)
02. It's All Right (2:18)
03. I Want To Know (2:11)
04. Yes Indeed (2:17)
05. Get On The Right Track Baby (2:20)
06. Talkin' About You (2:50)
07. Swanee River Rock (2:18)
08. Lonely Avenue (2:35)
09. Blackjack (2:21)
10. The Sun's Gonna Shine Again (2:39)
11. I Had A Dream (2:55)
12. I Want A Little Girl (2:56)
13. Heartbreaker (2:53)
14. Leave My Women Alone (2:41)
15. Night Time Is The Right Time (4:04)
16. In A Little Spanish Town (3:44)
17. I Got A Woman (6:20)
18. Blues Waltz (6:20)
19. Hot Rod (The Spirit Feel) (3:46)
20. Talkin' 'bout You (4:17)
21. Sherry (4:26)
22. A Fool For You (7:12)
 
 
Лог создания рипа
Exact Audio Copy V1.0 beta 3 from 29. August 2011
EAC extraction logfile from 22. April 2015, 10:42
Ray Charles / Eight Classic Albums CD2
Used drive : ASUS SDRW-08D2S-U Adapter: 1 ID: 0
Read mode : Secure
Utilize accurate stream : Yes
Defeat audio cache : Yes
Make use of C2 pointers : No
Read offset correction : 6
Overread into Lead-In and Lead-Out : No
Fill up missing offset samples with silence : Yes
Delete leading and trailing silent blocks : No
Null samples used in CRC calculations : Yes
Used interface : Native Win32 interface for Win NT & 2000
Gap handling : Appended to previous track
Used output format : User Defined Encoder
Selected bitrate : 128 kBit/s
Quality : High
Add ID3 tag : No
Command line compressor : C:\Program Files (x86)\Exact Audio Copy\Flac\flac.exe
Additional command line options : -8 -V -T "ARTIST=%artist%" -T "TITLE=%title%" -T "ALBUM=%albumtitle%" -T "DATE=%year%" -T "TRACKNUMBER=%tracknr%" -T "TOTALTRACKS=%numtracks%" -T "GENRE=%genre%" -T "ALBUMARTIST=%albumartist%" -T "ALBUM ARTIST=%albumartist%" -T "COMMENT=EAC Secure Mode, Test & Copy, AccurateRip, FLAC -8" %source%
TOC of the extracted CD
Track | Start | Length | Start sector | End sector
---------------------------------------------------------
1 | 0:00.00 | 2:34.50 | 0 | 11599
2 | 2:34.50 | 2:17.49 | 11600 | 21923
3 | 4:52.24 | 2:11.10 | 21924 | 31758
4 | 7:03.34 | 2:17.29 | 31759 | 42062
5 | 9:20.63 | 2:19.46 | 42063 | 52533
6 | 11:40.34 | 2:49.72 | 52534 | 65280
7 | 14:30.31 | 2:17.59 | 65281 | 75614
8 | 16:48.15 | 2:34.74 | 75615 | 87238
9 | 19:23.14 | 2:20.50 | 87239 | 97788
10 | 21:43.64 | 2:38.53 | 97789 | 109691
11 | 24:22.42 | 2:54.39 | 109692 | 122780
12 | 27:17.06 | 2:56.10 | 122781 | 135990
13 | 30:13.16 | 2:53.14 | 135991 | 148979
14 | 33:06.30 | 2:41.32 | 148980 | 161086
15 | 35:47.62 | 4:04.05 | 161087 | 179391
16 | 39:51.67 | 3:43.68 | 179392 | 196184
17 | 43:35.60 | 6:19.45 | 196185 | 224654
18 | 49:55.30 | 6:20.32 | 224655 | 253186
19 | 56:15.62 | 3:46.19 | 253187 | 270155
20 | 60:02.06 | 4:16.38 | 270156 | 289393
21 | 64:18.44 | 4:25.42 | 289394 | 309310
22 | 68:44.11 | 7:11.63 | 309311 | 341698
Track 1
Filename D:\Subir\01 - What Would I Do Without You.wav
Pre-gap length 0:00:02.00
Peak level 90.8 %
Extraction speed 1.9 X
Track quality 99.9 %
Test CRC B20D24BB
Copy CRC B20D24BB
Accurately ripped (confidence 5) [EFF4D271] (AR v2)
Copy OK
Track 2
Filename D:\Subir\02 - It's All Right.wav
Peak level 99.8 %
Extraction speed 2.6 X
Track quality 100.0 %
Test CRC C7347D44
Copy CRC C7347D44
Accurately ripped (confidence 5) [2F7F9F91] (AR v2)
Copy OK
Track 3
Filename D:\Subir\03 - I Want to Know.wav
Peak level 99.4 %
Extraction speed 2.0 X
Track quality 99.9 %
Test CRC 38B95B2D
Copy CRC 38B95B2D
Accurately ripped (confidence 5) [9C36F3CA] (AR v2)
Copy OK
Track 4
Filename D:\Subir\04 - Yes Indeed.wav
Peak level 90.2 %
Extraction speed 2.8 X
Track quality 100.0 %
Test CRC C2C796E3
Copy CRC C2C796E3
Accurately ripped (confidence 5) [0D7C55B4] (AR v2)
Copy OK
Track 5
Filename D:\Subir\05 - Get on the Right Track Baby.wav
Peak level 99.8 %
Extraction speed 3.0 X
Track quality 100.0 %
Test CRC 443A35B9
Copy CRC 443A35B9
Accurately ripped (confidence 5) [DEFB2BA2] (AR v2)
Copy OK
Track 6
Filename D:\Subir\06 - Talkin' About You.wav
Peak level 87.6 %
Extraction speed 2.5 X
Track quality 99.9 %
Test CRC 9CD785DB
Copy CRC 9CD785DB
Accurately ripped (confidence 5) [B5F815CA] (AR v2)
Copy OK
Track 7
Filename D:\Subir\07 - Swanee River Rock.wav
Peak level 88.9 %
Extraction speed 2.4 X
Track quality 99.9 %
Test CRC 5AA95284
Copy CRC 5AA95284
Accurately ripped (confidence 5) [A0377FB3] (AR v2)
Copy OK
Track 8
Filename D:\Subir\08 - Lonely Avenue.wav
Peak level 98.2 %
Extraction speed 3.4 X
Track quality 100.0 %
Test CRC 925DA07E
Copy CRC 925DA07E
Accurately ripped (confidence 5) [4D9F126E] (AR v2)
Copy OK
Track 9
Filename D:\Subir\09 - Blackjack.wav
Peak level 99.8 %
Extraction speed 3.4 X
Track quality 100.0 %
Test CRC 4B39DF63
Copy CRC 4B39DF63
Accurately ripped (confidence 5) [BB08A295] (AR v2)
Copy OK
Track 10
Filename D:\Subir\10 - The Sun's Gonna Shine Again.wav
Peak level 96.7 %
Extraction speed 2.7 X
Track quality 99.9 %
Test CRC 06AF6269
Copy CRC 06AF6269
Accurately ripped (confidence 5) [53C126C8] (AR v2)
Copy OK
Track 11
Filename D:\Subir\11 - I Had a Dream.wav
Peak level 93.6 %
Extraction speed 3.8 X
Track quality 100.0 %
Test CRC 57A15B6B
Copy CRC 57A15B6B
Accurately ripped (confidence 5) [E3D9A564] (AR v2)
Copy OK
Track 12
Filename D:\Subir\12 - I Want a Little Girl.wav
Peak level 89.2 %
Extraction speed 3.9 X
Track quality 100.0 %
Test CRC 5B235A39
Copy CRC 5B235A39
Accurately ripped (confidence 5) [7650BC86] (AR v2)
Copy OK
Track 13
Filename D:\Subir\13 - Heartbreaker.wav
Peak level 97.4 %
Extraction speed 4.0 X
Track quality 100.0 %
Test CRC E87C4148
Copy CRC E87C4148
Accurately ripped (confidence 5) [85202B37] (AR v2)
Copy OK
Track 14
Filename D:\Subir\14 - Leave My Women Alone.wav
Peak level 94.2 %
Extraction speed 4.1 X
Track quality 100.0 %
Test CRC 32C496A4
Copy CRC 32C496A4
Accurately ripped (confidence 5) [0B04F1B5] (AR v2)
Copy OK
Track 15
Filename D:\Subir\15 - Night Time Is the Right Time.wav
Peak level 88.9 %
Extraction speed 4.5 X
Track quality 100.0 %
Test CRC BD66E2AB
Copy CRC BD66E2AB
Accurately ripped (confidence 5) [C6FB6567] (AR v2)
Copy OK
Track 16
Filename D:\Subir\16 - In a Little Spanish Town.wav
Peak level 88.9 %
Extraction speed 4.6 X
Track quality 100.0 %
Test CRC F6851ED1
Copy CRC F6851ED1
Accurately ripped (confidence 5) [651B9B72] (AR v2)
Copy OK
Track 17
Filename D:\Subir\17 - I Got a Woman.wav
Peak level 88.9 %
Extraction speed 5.0 X
Track quality 100.0 %
Test CRC 24FF1951
Copy CRC 24FF1951
Accurately ripped (confidence 5) [4F3D52D4] (AR v2)
Copy OK
Track 18
Filename D:\Subir\18 - Blues Waltz.wav
Peak level 86.5 %
Extraction speed 4.5 X
Track quality 99.9 %
Test CRC FFC2B853
Copy CRC FFC2B853
Accurately ripped (confidence 5) [D9F63A74] (AR v2)
Copy OK
Track 19
Filename D:\Subir\19 - Hot Rod (The Spirit Feel).wav
Peak level 92.1 %
Extraction speed 5.1 X
Track quality 100.0 %
Test CRC ACE2A6DE
Copy CRC ACE2A6DE
Accurately ripped (confidence 5) [F016C376] (AR v2)
Copy OK
Track 20
Filename D:\Subir\20 - Talkin' 'bout You.wav
Peak level 91.8 %
Extraction speed 5.3 X
Track quality 100.0 %
Test CRC 013BF339
Copy CRC 013BF339
Accurately ripped (confidence 5) [EC75679F] (AR v2)
Copy OK
Track 21
Filename D:\Subir\21 - Sherry.wav
Peak level 99.8 %
Extraction speed 5.5 X
Track quality 100.0 %
Test CRC F50B65A7
Copy CRC F50B65A7
Accurately ripped (confidence 5) [C2D33431] (AR v2)
Copy OK
Track 22
Filename D:\Subir\22 - A Fool for You.wav
Peak level 99.8 %
Extraction speed 6.0 X
Track quality 100.0 %
Test CRC 5291C35B
Copy CRC 5291C35B
Accurately ripped (confidence 5) [C0B9118F] (AR v2)
Copy OK
All tracks accurately ripped
No errors occurred
End of status report
---- CUETools DB Plugin V2.1.3
[CTDB TOCID: f6bmzZnP3G1ldQwljIS8Id0Cwyg-] found, Submit result: f6bmzZnP3G1ldQwljIS8Id0Cwyg- has been confirmed
[15d2165e] (6/6) Accurately ripped
==== Log checksum EC9E56D771CB517D7A689DD3B5F22302484DF7C8F3A12630B83CB2CF035B6624 ====
 
Содержание индексной карты (.CUE)
REM GENRE Jazz
REM DATE 2011
REM DISCID 3E11CB16
REM COMMENT "ExactAudioCopy v1.0b3"
PERFORMER "Ray Charles"
TITLE "Eight Classic Albums CD2"
FILE "01 - What Would I Do Without You.wav" WAVE
TRACK 01 AUDIO
TITLE "What Would I Do Without You"
PERFORMER "Ray Charles"
FLAGS DCP
INDEX 01 00:00:00
FILE "02 - It's All Right.wav" WAVE
TRACK 02 AUDIO
TITLE "It's All Right"
PERFORMER "Ray Charles"
FLAGS DCP
INDEX 01 00:00:00
FILE "03 - I Want to Know.wav" WAVE
TRACK 03 AUDIO
TITLE "I Want to Know"
PERFORMER "Ray Charles"
FLAGS DCP
INDEX 01 00:00:00
FILE "04 - Yes Indeed.wav" WAVE
TRACK 04 AUDIO
TITLE "Yes Indeed"
PERFORMER "Ray Charles"
FLAGS DCP
INDEX 01 00:00:00
FILE "05 - Get on the Right Track Baby.wav" WAVE
TRACK 05 AUDIO
TITLE "Get on the Right Track Baby"
PERFORMER "Ray Charles"
FLAGS DCP
INDEX 01 00:00:00
FILE "06 - Talkin' About You.wav" WAVE
TRACK 06 AUDIO
TITLE "Talkin' About You"
PERFORMER "Ray Charles"
FLAGS DCP
INDEX 01 00:00:00
FILE "07 - Swanee River Rock.wav" WAVE
TRACK 07 AUDIO
TITLE "Swanee River Rock"
PERFORMER "Ray Charles"
FLAGS DCP
INDEX 01 00:00:00
FILE "08 - Lonely Avenue.wav" WAVE
TRACK 08 AUDIO
TITLE "Lonely Avenue"
PERFORMER "Ray Charles"
FLAGS DCP
INDEX 01 00:00:00
FILE "09 - Blackjack.wav" WAVE
TRACK 09 AUDIO
TITLE "Blackjack"
PERFORMER "Ray Charles"
FLAGS DCP
INDEX 01 00:00:00
FILE "10 - The Sun's Gonna Shine Again.wav" WAVE
TRACK 10 AUDIO
TITLE "The Sun's Gonna Shine Again"
PERFORMER "Ray Charles"
FLAGS DCP
INDEX 01 00:00:00
FILE "11 - I Had a Dream.wav" WAVE
TRACK 11 AUDIO
TITLE "I Had a Dream"
PERFORMER "Ray Charles"
FLAGS DCP
INDEX 01 00:00:00
FILE "12 - I Want a Little Girl.wav" WAVE
TRACK 12 AUDIO
TITLE "I Want a Little Girl"
PERFORMER "Ray Charles"
FLAGS DCP
INDEX 01 00:00:00
FILE "13 - Heartbreaker.wav" WAVE
TRACK 13 AUDIO
TITLE "Heartbreaker"
PERFORMER "Ray Charles"
FLAGS DCP
INDEX 01 00:00:00
FILE "14 - Leave My Women Alone.wav" WAVE
TRACK 14 AUDIO
TITLE "Leave My Women Alone"
PERFORMER "Ray Charles"
FLAGS DCP
INDEX 01 00:00:00
FILE "15 - Night Time Is the Right Time.wav" WAVE
TRACK 15 AUDIO
TITLE "Night Time Is the Right Time"
PERFORMER "Ray Charles"
FLAGS DCP
INDEX 01 00:00:00
FILE "16 - In a Little Spanish Town.wav" WAVE
TRACK 16 AUDIO
TITLE "In a Little Spanish Town"
PERFORMER "Ray Charles"
FLAGS DCP
INDEX 01 00:00:00
FILE "17 - I Got a Woman.wav" WAVE
TRACK 17 AUDIO
TITLE "I Got a Woman"
PERFORMER "Ray Charles"
FLAGS DCP
INDEX 01 00:00:00
FILE "18 - Blues Waltz.wav" WAVE
TRACK 18 AUDIO
TITLE "Blues Waltz"
PERFORMER "Ray Charles"
FLAGS DCP
INDEX 01 00:00:00
FILE "19 - Hot Rod (The Spirit Feel).wav" WAVE
TRACK 19 AUDIO
TITLE "Hot Rod (The Spirit Feel)"
PERFORMER "Ray Charles"
FLAGS DCP
INDEX 01 00:00:00
FILE "20 - Talkin' 'bout You.wav" WAVE
TRACK 20 AUDIO
TITLE "Talkin' 'bout You"
PERFORMER "Ray Charles"
FLAGS DCP
INDEX 01 00:00:00
FILE "21 - Sherry.wav" WAVE
TRACK 21 AUDIO
TITLE "Sherry"
PERFORMER "Ray Charles"
FLAGS DCP
INDEX 01 00:00:00
FILE "22 - A Fool for You.wav" WAVE
TRACK 22 AUDIO
TITLE "A Fool for You"
PERFORMER "Ray Charles"
FLAGS DCP
INDEX 01 00:00:00
 
CD 3
Продолжительность: 01:08:49
Треклист:
01. What'd I Say (5:04)
02. Jumpin' In The Morning (2:48)
03. You Be My Baby (2:30)
04. Tell Me How Do You Feel (2:45)
05. What Kind Of Man Are You (2:51)
06. Rockhouse (3:53)
07. Roll With My Baby (2:38)
08. Tell All The World About You (2:03)
09. My Bonnie (2:50)
10. That's Enough (2:47)
11. Let The Good Times Roll (2:53)
12. It Had To Be You (2:45)
13. Alexander's Ragtime Band (2:53)
14. Two Years Of Torture (3:25)
15. When Your Lover Has Gone (2:52)
16. Deed I Do (2:28)
17. Just For A Thrill (3:26)
18. You Won't Let Me Go (3:22)
19. Tell Me You'll Wait For Me (3:25)
20. Don't Let The Sun Catch You Cryin' (3:47)
21. Am I Blue (3:41)
22. Come Rain Or Come Shine (3:43)
 
 
Лог создания рипа
Exact Audio Copy V1.0 beta 3 from 29. August 2011
EAC extraction logfile from 22. April 2015, 12:20
Ray Charles / Eight Classic Albums CD3
Used drive : ASUS SDRW-08D2S-U Adapter: 1 ID: 0
Read mode : Secure
Utilize accurate stream : Yes
Defeat audio cache : Yes
Make use of C2 pointers : No
Read offset correction : 6
Overread into Lead-In and Lead-Out : No
Fill up missing offset samples with silence : Yes
Delete leading and trailing silent blocks : No
Null samples used in CRC calculations : Yes
Used interface : Native Win32 interface for Win NT & 2000
Gap handling : Appended to previous track
Used output format : User Defined Encoder
Selected bitrate : 128 kBit/s
Quality : High
Add ID3 tag : No
Command line compressor : C:\Program Files (x86)\Exact Audio Copy\Flac\flac.exe
Additional command line options : -8 -V -T "ARTIST=%artist%" -T "TITLE=%title%" -T "ALBUM=%albumtitle%" -T "DATE=%year%" -T "TRACKNUMBER=%tracknr%" -T "TOTALTRACKS=%numtracks%" -T "GENRE=%genre%" -T "ALBUMARTIST=%albumartist%" -T "ALBUM ARTIST=%albumartist%" -T "COMMENT=EAC Secure Mode, Test & Copy, AccurateRip, FLAC -8" %source%
TOC of the extracted CD
Track | Start | Length | Start sector | End sector
---------------------------------------------------------
1 | 0:00.00 | 5:04.01 | 0 | 22800
2 | 5:04.01 | 2:48.08 | 22801 | 35408
3 | 7:52.09 | 2:30.25 | 35409 | 46683
4 | 10:22.34 | 2:44.51 | 46684 | 59034
5 | 13:07.10 | 2:50.44 | 59035 | 71828
6 | 15:57.54 | 3:52.56 | 71829 | 89284
7 | 19:50.35 | 2:37.64 | 89285 | 101123
8 | 22:28.24 | 2:02.62 | 101124 | 110335
9 | 24:31.11 | 2:50.25 | 110336 | 123110
10 | 27:21.36 | 2:46.47 | 123111 | 135607
11 | 30:08.08 | 2:53.36 | 135608 | 148618
12 | 33:01.44 | 2:45.07 | 148619 | 161000
13 | 35:46.51 | 2:53.29 | 161001 | 174004
14 | 38:40.05 | 3:25.30 | 174005 | 189409
15 | 42:05.35 | 2:51.58 | 189410 | 202292
16 | 44:57.18 | 2:27.54 | 202293 | 213371
17 | 47:24.72 | 3:26.08 | 213372 | 228829
18 | 50:51.05 | 3:22.17 | 228830 | 243996
19 | 54:13.22 | 3:25.12 | 243997 | 259383
20 | 57:38.34 | 3:46.59 | 259384 | 276392
21 | 61:25.18 | 3:41.05 | 276393 | 292972
22 | 65:06.23 | 3:42.50 | 292973 | 309672
Track 1
Filename D:\Subir\01 - What'd I Say.wav
Pre-gap length 0:00:02.00
Peak level 95.0 %
Extraction speed 3.0 X
Track quality 100.0 %
Test CRC 0BC8DF86
Copy CRC 0BC8DF86
Accurately ripped (confidence 4) [8C7D056A] (AR v2)
Copy OK
Track 2
Filename D:\Subir\02 - Jumpin' In The Morning.wav
Peak level 95.1 %
Extraction speed 3.0 X
Track quality 100.0 %
Test CRC C2B21E5F
Copy CRC C2B21E5F
Accurately ripped (confidence 4) [CC904566] (AR v2)
Copy OK
Track 3
Filename D:\Subir\03 - You Be My Baby.wav
Peak level 88.0 %
Extraction speed 3.1 X
Track quality 100.0 %
Test CRC 8758F3B5
Copy CRC 8758F3B5
Accurately ripped (confidence 4) [2F7BB13D] (AR v2)
Copy OK
Track 4
Filename D:\Subir\04 - Tell Me How Do You Feel.wav
Peak level 99.8 %
Extraction speed 2.5 X
Track quality 99.9 %
Test CRC 180B44AD
Copy CRC 180B44AD
Accurately ripped (confidence 4) [0E8AB16C] (AR v2)
Copy OK
Track 5
Filename D:\Subir\05 - What Kind Of Man Are You.wav
Peak level 83.6 %
Extraction speed 3.5 X
Track quality 100.0 %
Test CRC BCDD195D
Copy CRC BCDD195D
Accurately ripped (confidence 4) [31505F96] (AR v2)
Copy OK
Track 6
Filename D:\Subir\06 - Rockhouse.wav
Peak level 96.0 %
Extraction speed 3.1 X
Track quality 99.9 %
Test CRC B9C8E336
Copy CRC B9C8E336
Accurately ripped (confidence 4) [39D3E9C2] (AR v2)
Copy OK
Track 7
Filename D:\Subir\07 - Roll With My Baby.wav
Peak level 96.2 %
Extraction speed 3.8 X
Track quality 100.0 %
Test CRC 681AC714
Copy CRC 681AC714
Accurately ripped (confidence 4) [DCB739AE] (AR v2)
Copy OK
Track 8
Filename D:\Subir\08 - Tell All The World About You.wav
Peak level 87.2 %
Extraction speed 2.6 X
Track quality 99.9 %
Test CRC B162CD62
Copy CRC B162CD62
Accurately ripped (confidence 4) [C4FF446D] (AR v2)
Copy OK
Track 9
Filename D:\Subir\09 - My Bonnie.wav
Peak level 88.0 %
Extraction speed 3.1 X
Track quality 99.9 %
Test CRC 211D53A6
Copy CRC 211D53A6
Accurately ripped (confidence 4) [E59CCAFD] (AR v2)
Copy OK
Track 10
Filename D:\Subir\10 - That's Enough.wav
Peak level 88.7 %
Extraction speed 3.1 X
Track quality 99.9 %
Test CRC 77C07364
Copy CRC 77C07364
Accurately ripped (confidence 4) [109882E7] (AR v2)
Copy OK
Track 11
Filename D:\Subir\11 - Let The Good Times Roll.wav
Peak level 89.3 %
Extraction speed 4.3 X
Track quality 100.0 %
Test CRC 41B6420A
Copy CRC 41B6420A
Accurately ripped (confidence 4) [09B3980C] (AR v2)
Copy OK
Track 12
Filename D:\Subir\12 - It Had To Be You.wav
Peak level 95.4 %
Extraction speed 4.4 X
Track quality 100.0 %
Test CRC 7EA3CE86
Copy CRC 7EA3CE86
Accurately ripped (confidence 4) [78B4EA79] (AR v2)
Copy OK
Track 13
Filename D:\Subir\13 - Alexander's Ragtime Band.wav
Peak level 89.3 %
Extraction speed 4.5 X
Track quality 100.0 %
Test CRC 9903F809
Copy CRC 9903F809
Accurately ripped (confidence 4) [5EF97401] (AR v2)
Copy OK
Track 14
Filename D:\Subir\14 - Two Years Of Torture.wav
Peak level 89.7 %
Extraction speed 4.8 X
Track quality 100.0 %
Test CRC 3B37415B
Copy CRC 3B37415B
Accurately ripped (confidence 4) [50939AF2] (AR v2)
Copy OK
Track 15
Filename D:\Subir\15 - When Your Lover Has Gone.wav
Peak level 88.9 %
Extraction speed 4.8 X
Track quality 100.0 %
Test CRC DEFF42DE
Copy CRC DEFF42DE
Accurately ripped (confidence 4) [C9BDD957] (AR v2)
Copy OK
Track 16
Filename D:\Subir\16 - Deed I Do.wav
Peak level 89.4 %
Extraction speed 3.4 X
Track quality 99.9 %
Test CRC 587540F2
Copy CRC 587540F2
Accurately ripped (confidence 4) [4C830DD9] (AR v2)
Copy OK
Track 17
Filename D:\Subir\17 - Just For A Thrill.wav
Peak level 94.6 %
Extraction speed 5.2 X
Track quality 100.0 %
Test CRC CB1FCEEC
Copy CRC CB1FCEEC
Accurately ripped (confidence 4) [BA3F35E7] (AR v2)
Copy OK
Track 18
Filename D:\Subir\18 - You Won't Let Me Go.wav
Peak level 97.5 %
Extraction speed 5.2 X
Track quality 100.0 %
Test CRC F14AE896
Copy CRC F14AE896
Accurately ripped (confidence 4) [9180C6BB] (AR v2)
Copy OK
Track 19
Filename D:\Subir\19 - Tell Me You'll Wait For Me.wav
Peak level 99.8 %
Extraction speed 4.2 X
Track quality 99.9 %
Test CRC 91EBAA25
Copy CRC 91EBAA25
Accurately ripped (confidence 4) [68516422] (AR v2)
Copy OK
Track 20
Filename D:\Subir\20 - Don't Let The Sun Catch You Cryin'.wav
Peak level 94.1 %
Extraction speed 5.5 X
Track quality 100.0 %
Test CRC 03248A17
Copy CRC 03248A17
Accurately ripped (confidence 4) [6D1087E0] (AR v2)
Copy OK
Track 21
Filename D:\Subir\21 - Am I Blue.wav
Peak level 89.5 %
Extraction speed 4.4 X
Track quality 99.9 %
Test CRC 78C210E9
Copy CRC 78C210E9
Accurately ripped (confidence 4) [085867C3] (AR v2)
Copy OK
Track 22
Filename D:\Subir\22 - Come Rain Or Come Shine.wav
Peak level 95.8 %
Extraction speed 5.7 X
Track quality 100.0 %
Test CRC 797AADC5
Copy CRC 797AADC5
Accurately ripped (confidence 4) [8053480B] (AR v2)
Copy OK
All tracks accurately ripped
No errors occurred
End of status report
---- CUETools DB Plugin V2.1.3
[CTDB TOCID: 03J4LRWcwlB.NrG2sshUIw_HNOo-] found, Submit result: 03J4LRWcwlB.NrG2sshUIw_HNOo- has been confirmed
[e6eb6e0e] (7/8) Accurately ripped
[98eb99af] (1/8) No match
==== Log checksum 5D874F8F7410BAD7A7DE4FDA410DC2981A8FAA78CA1D7EE4D437CB593054D5B4 ====
 
Содержание индексной карты (.CUE)
REM GENRE Jazz
REM DATE 2011
REM DISCID 51102016
REM COMMENT "ExactAudioCopy v1.0b3"
PERFORMER "Ray Charles"
TITLE "Eight Classic Albums CD3"
FILE "01 - What'd I Say.wav" WAVE
TRACK 01 AUDIO
TITLE "What'd I Say"
PERFORMER "Ray Charles"
FLAGS DCP
INDEX 01 00:00:00
FILE "02 - Jumpin' In The Morning.wav" WAVE
TRACK 02 AUDIO
TITLE "Jumpin' In The Morning"
PERFORMER "Ray Charles"
FLAGS DCP
INDEX 01 00:00:00
FILE "03 - You Be My Baby.wav" WAVE
TRACK 03 AUDIO
TITLE "You Be My Baby"
PERFORMER "Ray Charles"
FLAGS DCP
INDEX 01 00:00:00
FILE "04 - Tell Me How Do You Feel.wav" WAVE
TRACK 04 AUDIO
TITLE "Tell Me How Do You Feel"
PERFORMER "Ray Charles"
FLAGS DCP
INDEX 01 00:00:00
FILE "05 - What Kind Of Man Are You.wav" WAVE
TRACK 05 AUDIO
TITLE "What Kind Of Man Are You"
PERFORMER "Ray Charles"
FLAGS DCP
INDEX 01 00:00:00
FILE "06 - Rockhouse.wav" WAVE
TRACK 06 AUDIO
TITLE "Rockhouse"
PERFORMER "Ray Charles"
FLAGS DCP
INDEX 01 00:00:00
FILE "07 - Roll With My Baby.wav" WAVE
TRACK 07 AUDIO
TITLE "Roll With My Baby"
PERFORMER "Ray Charles"
FLAGS DCP
INDEX 01 00:00:00
FILE "08 - Tell All The World About You.wav" WAVE
TRACK 08 AUDIO
TITLE "Tell All The World About You"
PERFORMER "Ray Charles"
FLAGS DCP
INDEX 01 00:00:00
FILE "09 - My Bonnie.wav" WAVE
TRACK 09 AUDIO
TITLE "My Bonnie"
PERFORMER "Ray Charles"
FLAGS DCP
INDEX 01 00:00:00
FILE "10 - That's Enough.wav" WAVE
TRACK 10 AUDIO
TITLE "That's Enough"
PERFORMER "Ray Charles"
FLAGS DCP
INDEX 01 00:00:00
FILE "11 - Let The Good Times Roll.wav" WAVE
TRACK 11 AUDIO
TITLE "Let The Good Times Roll"
PERFORMER "Ray Charles"
FLAGS DCP
INDEX 01 00:00:00
FILE "12 - It Had To Be You.wav" WAVE
TRACK 12 AUDIO
TITLE "It Had To Be You"
PERFORMER "Ray Charles"
FLAGS DCP
INDEX 01 00:00:00
FILE "13 - Alexander's Ragtime Band.wav" WAVE
TRACK 13 AUDIO
TITLE "Alexander's Ragtime Band"
PERFORMER "Ray Charles"
FLAGS DCP
INDEX 01 00:00:00
FILE "14 - Two Years Of Torture.wav" WAVE
TRACK 14 AUDIO
TITLE "Two Years Of Torture"
PERFORMER "Ray Charles"
FLAGS DCP
INDEX 01 00:00:00
FILE "15 - When Your Lover Has Gone.wav" WAVE
TRACK 15 AUDIO
TITLE "When Your Lover Has Gone"
PERFORMER "Ray Charles"
FLAGS DCP
INDEX 01 00:00:00
FILE "16 - Deed I Do.wav" WAVE
TRACK 16 AUDIO
TITLE "Deed I Do"
PERFORMER "Ray Charles"
FLAGS DCP
INDEX 01 00:00:00
FILE "17 - Just For A Thrill.wav" WAVE
TRACK 17 AUDIO
TITLE "Just For A Thrill"
PERFORMER "Ray Charles"
FLAGS DCP
INDEX 01 00:00:00
FILE "18 - You Won't Let Me Go.wav" WAVE
TRACK 18 AUDIO
TITLE "You Won't Let Me Go"
PERFORMER "Ray Charles"
FLAGS DCP
INDEX 01 00:00:00
FILE "19 - Tell Me You'll Wait For Me.wav" WAVE
TRACK 19 AUDIO
TITLE "Tell Me You'll Wait For Me"
PERFORMER "Ray Charles"
FLAGS DCP
INDEX 01 00:00:00
FILE "20 - Don't Let The Sun Catch You Cryin'.wav" WAVE
TRACK 20 AUDIO
TITLE "Don't Let The Sun Catch You Cryin'"
PERFORMER "Ray Charles"
FLAGS DCP
INDEX 01 00:00:00
FILE "21 - Am I Blue.wav" WAVE
TRACK 21 AUDIO
TITLE "Am I Blue"
PERFORMER "Ray Charles"
FLAGS DCP
INDEX 01 00:00:00
FILE "22 - Come Rain Or Come Shine.wav" WAVE
TRACK 22 AUDIO
TITLE "Come Rain Or Come Shine"
PERFORMER "Ray Charles"
FLAGS DCP
INDEX 01 00:00:00
 
CD 4
Продолжительность: 01:18:05
Треклист:
01. Soul Brothers (9:33)
02. How Long Blues (9:14)
03. Cosmic Ray (5:21)
04. Blue Funk (8:07)
05. Bag's Guitar Blues (6:28)
06. Deed I Do (5:47)
07. Alabamy Bound (1:54)
08. Georgia On My Mind (3:35)
09. Basin Street Blues (2:45)
10. Mississippi Mud (3:23)
11. Moonlight In Vermont (3:02)
12. New York's My Home (3:03)
13. California, Here I Come (2:08)
14. Moon Over Miami (3:19)
15. Deep In The Heart Of Texas (2:27)
16. Carry Me Back To Old Virginia (2:01)
17. Blue Hawaii (2:57)
18. Chattanooga Choo Choo (3:01)
 
 
Лог создания рипа
Exact Audio Copy V1.0 beta 3 from 29. August 2011
EAC extraction logfile from 22. April 2015, 13:12
Ray Charles / Eight Classic Albums CD4
Used drive : ASUS SDRW-08D2S-U Adapter: 1 ID: 0
Read mode : Secure
Utilize accurate stream : Yes
Defeat audio cache : Yes
Make use of C2 pointers : No
Read offset correction : 6
Overread into Lead-In and Lead-Out : No
Fill up missing offset samples with silence : Yes
Delete leading and trailing silent blocks : No
Null samples used in CRC calculations : Yes
Used interface : Native Win32 interface for Win NT & 2000
Gap handling : Appended to previous track
Used output format : User Defined Encoder
Selected bitrate : 128 kBit/s
Quality : High
Add ID3 tag : No
Command line compressor : C:\Program Files (x86)\Exact Audio Copy\Flac\flac.exe
Additional command line options : -8 -V -T "ARTIST=%artist%" -T "TITLE=%title%" -T "ALBUM=%albumtitle%" -T "DATE=%year%" -T "TRACKNUMBER=%tracknr%" -T "TOTALTRACKS=%numtracks%" -T "GENRE=%genre%" -T "ALBUMARTIST=%albumartist%" -T "ALBUM ARTIST=%albumartist%" -T "COMMENT=EAC Secure Mode, Test & Copy, AccurateRip, FLAC -8" %source%
TOC of the extracted CD
Track | Start | Length | Start sector | End sector
---------------------------------------------------------
1 | 0:00.00 | 9:33.29 | 0 | 43003
2 | 9:33.29 | 9:13.54 | 43004 | 84532
3 | 18:47.08 | 5:21.36 | 84533 | 108643
4 | 24:08.44 | 8:07.01 | 108644 | 145169
5 | 32:15.45 | 6:27.54 | 145170 | 174248
6 | 38:43.24 | 5:47.07 | 174249 | 200280
7 | 44:30.31 | 1:53.39 | 200281 | 208794
8 | 46:23.70 | 3:35.03 | 208795 | 224922
9 | 49:58.73 | 2:44.64 | 224923 | 237286
10 | 52:43.62 | 3:23.01 | 237287 | 252512
11 | 56:06.63 | 3:02.00 | 252513 | 266162
12 | 59:08.63 | 3:03.23 | 266163 | 279910
13 | 62:12.11 | 2:08.27 | 279911 | 289537
14 | 64:20.38 | 3:18.67 | 289538 | 304454
15 | 67:39.30 | 2:26.39 | 304455 | 315443
16 | 70:05.69 | 2:00.62 | 315444 | 324505
17 | 72:06.56 | 2:57.19 | 324506 | 337799
18 | 75:04.00 | 3:00.70 | 337800 | 351369
Track 1
Filename D:\Subir\01 - Soul Brothers.wav
Pre-gap length 0:00:02.00
Peak level 100.0 %
Extraction speed 3.2 X
Track quality 100.0 %
Test CRC 0621BEDD
Copy CRC 0621BEDD
Accurately ripped (confidence 6) [07578B48] (AR v2)
Copy OK
Track 2
Filename D:\Subir\02 - How Long Blues.wav
Peak level 100.0 %
Extraction speed 3.8 X
Track quality 100.0 %
Test CRC 22845D2D
Copy CRC 22845D2D
Accurately ripped (confidence 6) [5FD0E063] (AR v2)
Copy OK
Track 3
Filename D:\Subir\03 - Cosmic Ray.wav
Peak level 96.9 %
Extraction speed 4.0 X
Track quality 100.0 %
Test CRC BB8AE0EB
Copy CRC BB8AE0EB
Accurately ripped (confidence 6) [15BAF7E2] (AR v2)
Copy OK
Track 4
Filename D:\Subir\04 - Blue Funk.wav
Peak level 99.3 %
Extraction speed 4.0 X
Track quality 99.9 %
Test CRC 74FE04C3
Copy CRC 74FE04C3
Accurately ripped (confidence 6) [46D1CDCB] (AR v2)
Copy OK
Track 5
Filename D:\Subir\05 - Bag's Guitar Blues.wav
Peak level 100.0 %
Extraction speed 4.7 X
Track quality 100.0 %
Test CRC A8BDD3B5
Copy CRC A8BDD3B5
Accurately ripped (confidence 6) [D2F7BBD8] (AR v2)
Copy OK
Track 6
Filename D:\Subir\06 - Deed I Do.wav
Peak level 100.0 %
Extraction speed 4.9 X
Track quality 100.0 %
Test CRC 3A68A96E
Copy CRC 3A68A96E
Accurately ripped (confidence 6) [8DC0F38B] (AR v2)
Copy OK
Track 7
Filename D:\Subir\07 - Alabamy Bound.wav
Peak level 92.5 %
Extraction speed 2.8 X
Track quality 99.9 %
Test CRC A7D28572
Copy CRC A7D28572
Accurately ripped (confidence 6) [9D462992] (AR v2)
Copy OK
Track 8
Filename D:\Subir\08 - Georgia on My Mind.wav
Peak level 75.1 %
Extraction speed 4.8 X
Track quality 100.0 %
Test CRC 2D87FBAA
Copy CRC 2D87FBAA
Accurately ripped (confidence 6) [14669A11] (AR v2)
Copy OK
Track 9
Filename D:\Subir\09 - Basin Street Blues.wav
Peak level 89.0 %
Extraction speed 4.7 X
Track quality 100.0 %
Test CRC 91940288
Copy CRC 91940288
Accurately ripped (confidence 6) [400E7098] (AR v2)
Copy OK
Track 10
Filename D:\Subir\10 - Mississippi Mud.wav
Peak level 97.4 %
Extraction speed 5.0 X
Track quality 100.0 %
Test CRC 77917674
Copy CRC 77917674
Accurately ripped (confidence 6) [547E75C9] (AR v2)
Copy OK
Track 11
Filename D:\Subir\11 - Moonlight in Vermont.wav
Peak level 72.6 %
Extraction speed 5.0 X
Track quality 100.0 %
Test CRC 16D5BD2B
Copy CRC 16D5BD2B
Accurately ripped (confidence 6) [744E535C] (AR v2)
Copy OK
Track 12
Filename D:\Subir\12 - New York's My Home.wav
Peak level 95.3 %
Extraction speed 5.0 X
Track quality 100.0 %
Test CRC 399D46D8
Copy CRC 399D46D8
Accurately ripped (confidence 6) [0D625F0C] (AR v2)
Copy OK
Track 13
Filename D:\Subir\13 - California, Here I Come.wav
Peak level 99.9 %
Extraction speed 4.8 X
Track quality 100.0 %
Test CRC 93F77157
Copy CRC 93F77157
Accurately ripped (confidence 6) [FDF53736] (AR v2)
Copy OK
Track 14
Filename D:\Subir\14 - Moon Over Miami.wav
Peak level 75.1 %
Extraction speed 4.1 X
Track quality 99.9 %
Test CRC 48E9B33B
Copy CRC 48E9B33B
Accurately ripped (confidence 6) [F988C3B1] (AR v2)
Copy OK
Track 15
Filename D:\Subir\15 - Deep in the Heart of Texas.wav
Peak level 82.6 %
Extraction speed 5.0 X
Track quality 100.0 %
Test CRC 6426133D
Copy CRC 6426133D
Accurately ripped (confidence 6) [A91CDA57] (AR v2)
Copy OK
Track 16
Filename D:\Subir\16 - Carry Me Back to Old Virginia.wav
Peak level 84.1 %
Extraction speed 3.4 X
Track quality 99.9 %
Test CRC 78E98E4D
Copy CRC 78E98E4D
Accurately ripped (confidence 6) [A12232B0] (AR v2)
Copy OK
Track 17
Filename D:\Subir\17 - Blue Hawaii.wav
Peak level 83.0 %
Extraction speed 4.1 X
Track quality 99.9 %
Test CRC 47739A88
Copy CRC 47739A88
Accurately ripped (confidence 6) [FFB6DFAE] (AR v2)
Copy OK
Track 18
Filename D:\Subir\18 - Chattanooga Choo Choo.wav
Peak level 94.8 %
Extraction speed 4.1 X
Track quality 99.9 %
Test CRC 491C42D4
Copy CRC 491C42D4
Accurately ripped (confidence 6) [E1E10BD5] (AR v2)
Copy OK
All tracks accurately ripped
No errors occurred
End of status report
---- CUETools DB Plugin V2.1.3
[CTDB TOCID: OyZcEABsPCnPMgyDXAYMHD165j8-] found, Submit result: OyZcEABsPCnPMgyDXAYMHD165j8- has been confirmed
[5d10aec9] (8/8) Accurately ripped
==== Log checksum 6946B114794A807BA66D47C636F0BC187D9F6C4BC7CEA73365E4235BF7292D76 ====
 
Содержание индексной карты (.CUE)
REM GENRE Jazz
REM DATE 2011
REM DISCID 01124C12
REM COMMENT "ExactAudioCopy v1.0b3"
PERFORMER "Ray Charles"
TITLE "Eight Classic Albums CD4"
FILE "01 - Soul Brothers.wav" WAVE
TRACK 01 AUDIO
TITLE "Soul Brothers"
PERFORMER "Ray Charles"
FLAGS DCP
INDEX 01 00:00:00
FILE "02 - How Long Blues.wav" WAVE
TRACK 02 AUDIO
TITLE "How Long Blues"
PERFORMER "Ray Charles"
FLAGS DCP
INDEX 01 00:00:00
FILE "03 - Cosmic Ray.wav" WAVE
TRACK 03 AUDIO
TITLE "Cosmic Ray"
PERFORMER "Ray Charles"
FLAGS DCP
INDEX 01 00:00:00
FILE "04 - Blue Funk.wav" WAVE
TRACK 04 AUDIO
TITLE "Blue Funk"
PERFORMER "Ray Charles"
FLAGS DCP
INDEX 01 00:00:00
FILE "05 - Bag's Guitar Blues.wav" WAVE
TRACK 05 AUDIO
TITLE "Bag's Guitar Blues"
PERFORMER "Ray Charles"
FLAGS DCP
INDEX 01 00:00:00
FILE "06 - Deed I Do.wav" WAVE
TRACK 06 AUDIO
TITLE "Deed I Do"
PERFORMER "Ray Charles"
FLAGS DCP
INDEX 01 00:00:00
FILE "07 - Alabamy Bound.wav" WAVE
TRACK 07 AUDIO
TITLE "Alabamy Bound"
PERFORMER "Ray Charles"
FLAGS DCP
INDEX 01 00:00:00
FILE "08 - Georgia on My Mind.wav" WAVE
TRACK 08 AUDIO
TITLE "Georgia on My Mind"
PERFORMER "Ray Charles"
FLAGS DCP
INDEX 01 00:00:00
FILE "09 - Basin Street Blues.wav" WAVE
TRACK 09 AUDIO
TITLE "Basin Street Blues"
PERFORMER "Ray Charles"
FLAGS DCP
INDEX 01 00:00:00
FILE "10 - Mississippi Mud.wav" WAVE
TRACK 10 AUDIO
TITLE "Mississippi Mud"
PERFORMER "Ray Charles"
FLAGS DCP
INDEX 01 00:00:00
FILE "11 - Moonlight in Vermont.wav" WAVE
TRACK 11 AUDIO
TITLE "Moonlight in Vermont"
PERFORMER "Ray Charles"
FLAGS DCP
INDEX 01 00:00:00
FILE "12 - New York's My Home.wav" WAVE
TRACK 12 AUDIO
TITLE "New York's My Home"
PERFORMER "Ray Charles"
FLAGS DCP
INDEX 01 00:00:00
FILE "13 - California, Here I Come.wav" WAVE
TRACK 13 AUDIO
TITLE "California, Here I Come"
PERFORMER "Ray Charles"
FLAGS DCP
INDEX 01 00:00:00
FILE "14 - Moon Over Miami.wav" WAVE
TRACK 14 AUDIO
TITLE "Moon Over Miami"
PERFORMER "Ray Charles"
FLAGS DCP
INDEX 01 00:00:00
FILE "15 - Deep in the Heart of Texas.wav" WAVE
TRACK 15 AUDIO
TITLE "Deep in the Heart of Texas"
PERFORMER "Ray Charles"
FLAGS DCP
INDEX 01 00:00:00
FILE "16 - Carry Me Back to Old Virginia.wav" WAVE
TRACK 16 AUDIO
TITLE "Carry Me Back to Old Virginia"
PERFORMER "Ray Charles"
FLAGS DCP
INDEX 01 00:00:00
FILE "17 - Blue Hawaii.wav" WAVE
TRACK 17 AUDIO
TITLE "Blue Hawaii"
PERFORMER "Ray Charles"
FLAGS DCP
INDEX 01 00:00:00
FILE "18 - Chattanooga Choo Choo.wav" WAVE
TRACK 18 AUDIO
TITLE "Chattanooga Choo Choo"
PERFORMER "Ray Charles"
FLAGS DCP
INDEX 01 00:00:00
Приватный:
Нет (DHT включён)
Размер:
1.59 Гб (1,706,788,240 байт) » файлов: 116
Участники:
0 раздают, 0 качают (0 участников всего)
Внешние участники:
5 раздают, 2 качают (7 участников всего) [ Обновить ]
No seeders - write a personal message to user M0p94ok. Нет сидеров - пишите личное сообщение пользователю M0p94ok.
06:06
96
Нет комментариев. Ваш будет первым!