Поиск

(Funk, Soul) [CD] The S.O.S. Band - S.O.S. III (1982) - 2013, FLAC (tracks+.cue), lossless

(Funk, Soul) [CD] The S.O.S. Band - S.O.S. III (1982) - 2013, FLAC (tracks+.cue), lossless
Треклист:
The S.O.S. Band - S.O.S. III (1982) Жанр: Funk, Soul
Носитель: CD
Страна-производитель диска (релиза): Japan
Год издания: 2013
Издатель (лейбл): Solid/Tabu
Номер по каталогу: CDSOL-5216
Аудиокодек: FLAC (*.flac)
Тип рипа: tracks+.cue
Битрейт аудио: lossless
Продолжительность: 71:54
Rip by JET 1
Наличие сканов в содержимом раздачи: да
Треклист:
01. Can't Get Enough (5:47)
02. High Hopes (6:30)
03. Have It Your Way (5:07)
04. Your Love (It's The One For Me) (5:16)
05. Good & Plenty (4:32)
06. Looking For You (4:31)
07. These Are The Things (4:49)
08. You Shake Me Up (4:03)
09. Groovin' (That's What We're Doin') (4:30)
10. High Hopes (Edit) (5:31)
11. Good & Plenty (7'' Version) (3:58)
12. Good & Plenty (12'' Version) (5:31)
13. Groovin' (That's What We're Doin') (Special Version) (5:34)
14. Your Love (It's The One For Me) (U.S. 12'' Version) (6:15)
 
 
Лог создания рипа
Exact Audio Copy V1.0 beta 3 from 29. August 2011
EAC extraction logfile from 18. May 2015, 22:59
The S.O.S. Band / S.O.S. III
Used drive : GENERIC CDRCB05 Adapter: 4 ID: 0
Read mode : Secure
Utilize accurate stream : Yes
Defeat audio cache : Yes
Make use of C2 pointers : No
Read offset correction : 102
Overread into Lead-In and Lead-Out : No
Fill up missing offset samples with silence : Yes
Delete leading and trailing silent blocks : No
Null samples used in CRC calculations : Yes
Used interface : Native Win32 interface for Win NT & 2000
Gap handling : Appended to previous track
Used output format : User Defined Encoder
Selected bitrate : 1024 kBit/s
Quality : High
Add ID3 tag : No
Command line compressor : C:\Program Files\FLAC\flac.exe
Additional command line options : -8 -V -T "ARTIST=%artist%" -T "TITLE=%title%" -T "ALBUM=%albumtitle%" -T "DATE=%year%" -T "TRACKNUMBER=%tracknr%" -T "GENRE=%genre%" -T "PERFORMER=%albuminterpret%" -T "COMPOSER=%composer%" %haslyrics%--tag-from-file=LYRICS="%lyricsfile%"%haslyrics% -T "ALBUMARTIST=%albumartist%" -T "DISCNUMBER=%cdnumber%" -T "TOTALDISCS=%totalcds%" -T "TOTALTRACKS=%numtracks%" -T "COMMENT=%comment%" %source% -o %dest%
TOC of the extracted CD
Track | Start | Length | Start sector | End sector
---------------------------------------------------------
1 | 0:00.00 | 5:47.06 | 0 | 26030
2 | 5:47.06 | 6:30.33 | 26031 | 55313
3 | 12:17.39 | 5:06.74 | 55314 | 78337
4 | 17:24.38 | 5:15.38 | 78338 | 102000
5 | 22:40.01 | 4:31.49 | 102001 | 122374
6 | 27:11.50 | 4:31.17 | 122375 | 142716
7 | 31:42.67 | 4:48.51 | 142717 | 164367
8 | 36:31.43 | 4:03.36 | 164368 | 182628
9 | 40:35.04 | 4:29.53 | 182629 | 202856
10 | 45:04.57 | 5:31.31 | 202857 | 227712
11 | 50:36.13 | 3:58.22 | 227713 | 245584
12 | 54:34.35 | 5:31.09 | 245585 | 270418
13 | 60:05.44 | 5:33.59 | 270419 | 295452
14 | 65:39.28 | 6:14.73 | 295453 | 323575
Track 1
Filename H:\0\..................00\0000POSTTT\The S.O.S. Band - S.O.S. III (1982) [2013 Japan]\01 - Can't Get Enough.wav
Pre-gap length 0:00:02.00
Peak level 98.3 %
Extraction speed 1.5 X
Track quality 100.0 %
Test CRC 1BE69E13
Copy CRC 1BE69E13
Track not present in AccurateRip database
Copy OK
Track 2
Filename H:\0\..................00\0000POSTTT\The S.O.S. Band - S.O.S. III (1982) [2013 Japan]\02 - High Hopes.wav
Peak level 98.3 %
Extraction speed 1.6 X
Track quality 99.9 %
Test CRC 855F0E64
Copy CRC 855F0E64
Track not present in AccurateRip database
Copy OK
Track 3
Filename H:\0\..................00\0000POSTTT\The S.O.S. Band - S.O.S. III (1982) [2013 Japan]\03 - Have It Your Way.wav
Peak level 98.3 %
Extraction speed 1.9 X
Track quality 100.0 %
Test CRC AA815D2A
Copy CRC AA815D2A
Track not present in AccurateRip database
Copy OK
Track 4
Filename H:\0\..................00\0000POSTTT\The S.O.S. Band - S.O.S. III (1982) [2013 Japan]\04 - Your Love (It's The One For Me).wav
Peak level 98.3 %
Extraction speed 2.0 X
Track quality 100.0 %
Test CRC 8B6587E0
Copy CRC 8B6587E0
Track not present in AccurateRip database
Copy OK
Track 5
Filename H:\0\..................00\0000POSTTT\The S.O.S. Band - S.O.S. III (1982) [2013 Japan]\05 - Good & Plenty.wav
Peak level 98.3 %
Extraction speed 2.1 X
Track quality 100.0 %
Test CRC F3DC5C68
Copy CRC F3DC5C68
Track not present in AccurateRip database
Copy OK
Track 6
Filename H:\0\..................00\0000POSTTT\The S.O.S. Band - S.O.S. III (1982) [2013 Japan]\06 - Looking For You.wav
Peak level 98.3 %
Extraction speed 2.0 X
Track quality 99.9 %
Test CRC 8AD1DD99
Copy CRC 8AD1DD99
Track not present in AccurateRip database
Copy OK
Track 7
Filename H:\0\..................00\0000POSTTT\The S.O.S. Band - S.O.S. III (1982) [2013 Japan]\07 - These Are The Things.wav
Peak level 98.3 %
Extraction speed 2.4 X
Track quality 100.0 %
Test CRC 45AC9B9E
Copy CRC 45AC9B9E
Track not present in AccurateRip database
Copy OK
Track 8
Filename H:\0\..................00\0000POSTTT\The S.O.S. Band - S.O.S. III (1982) [2013 Japan]\08 - You Shake Me Up.wav
Peak level 98.3 %
Extraction speed 2.4 X
Track quality 100.0 %
Test CRC 030161B0
Copy CRC 030161B0
Track not present in AccurateRip database
Copy OK
Track 9
Filename H:\0\..................00\0000POSTTT\The S.O.S. Band - S.O.S. III (1982) [2013 Japan]\09 - Groovin' (That's What We're Doin').wav
Peak level 98.3 %
Extraction speed 2.5 X
Track quality 100.0 %
Test CRC A58B9E4F
Copy CRC A58B9E4F
Track not present in AccurateRip database
Copy OK
Track 10
Filename H:\0\..................00\0000POSTTT\The S.O.S. Band - S.O.S. III (1982) [2013 Japan]\10 - High Hopes (Edit).wav
Peak level 98.3 %
Extraction speed 2.7 X
Track quality 100.0 %
Test CRC 9C77B1FD
Copy CRC 9C77B1FD
Track not present in AccurateRip database
Copy OK
Track 11
Filename H:\0\..................00\0000POSTTT\The S.O.S. Band - S.O.S. III (1982) [2013 Japan]\11 - Good & Plenty (7'' Version).wav
Peak level 98.3 %
Extraction speed 2.7 X
Track quality 100.0 %
Test CRC 08F109E9
Copy CRC 08F109E9
Track not present in AccurateRip database
Copy OK
Track 12
Filename H:\0\..................00\0000POSTTT\The S.O.S. Band - S.O.S. III (1982) [2013 Japan]\12 - Good & Plenty (12'' Version).wav
Peak level 98.3 %
Extraction speed 2.6 X
Track quality 100.0 %
Test CRC 1FEC7D38
Copy CRC 1FEC7D38
Track not present in AccurateRip database
Copy OK
Track 13
Filename H:\0\..................00\0000POSTTT\The S.O.S. Band - S.O.S. III (1982) [2013 Japan]\13 - Groovin' (That's What We're Doin') (Special Version).wav
Peak level 98.3 %
Extraction speed 2.9 X
Track quality 100.0 %
Test CRC BC9CEDB2
Copy CRC BC9CEDB2
Track not present in AccurateRip database
Copy OK
Track 14
Filename H:\0\..................00\0000POSTTT\The S.O.S. Band - S.O.S. III (1982) [2013 Japan]\14 - Your Love (It's The One For Me) (U.S. 12'' Version).wav
Peak level 98.3 %
Extraction speed 3.1 X
Track quality 100.0 %
Test CRC C0B7FE92
Copy CRC C0B7FE92
Track not present in AccurateRip database
Copy OK
None of the tracks are present in the AccurateRip database
No errors occurred
End of status report
==== Log checksum B7BC9F97913217568D942C70BB48805D29C90250C28B7B4238AF78EFF14BFBCF ====
 
Содержание индексной карты (.CUE)
REM GENRE Funk
REM DATE 2013
REM DISCID C610DA0E
REM COMMENT "ExactAudioCopy v1.0b3"
PERFORMER "The S.O.S. Band"
TITLE "S.O.S. III"
FILE "01 - Can't Get Enough.wav" WAVE
TRACK 01 AUDIO
TITLE "Can't Get Enough"
PERFORMER "The S.O.S. Band"
INDEX 01 00:00:00
FILE "02 - High Hopes.wav" WAVE
TRACK 02 AUDIO
TITLE "High Hopes"
PERFORMER "The S.O.S. Band"
INDEX 01 00:00:00
FILE "03 - Have It Your Way.wav" WAVE
TRACK 03 AUDIO
TITLE "Have It Your Way"
PERFORMER "The S.O.S. Band"
INDEX 01 00:00:00
FILE "04 - Your Love (It's The One For Me).wav" WAVE
TRACK 04 AUDIO
TITLE "Your Love (It's The One For Me)"
PERFORMER "The S.O.S. Band"
INDEX 01 00:00:00
FILE "05 - Good & Plenty.wav" WAVE
TRACK 05 AUDIO
TITLE "Good & Plenty"
PERFORMER "The S.O.S. Band"
INDEX 01 00:00:00
FILE "06 - Looking For You.wav" WAVE
TRACK 06 AUDIO
TITLE "Looking For You"
PERFORMER "The S.O.S. Band"
INDEX 01 00:00:00
FILE "07 - These Are The Things.wav" WAVE
TRACK 07 AUDIO
TITLE "These Are The Things"
PERFORMER "The S.O.S. Band"
INDEX 01 00:00:00
FILE "08 - You Shake Me Up.wav" WAVE
TRACK 08 AUDIO
TITLE "You Shake Me Up"
PERFORMER "The S.O.S. Band"
INDEX 01 00:00:00
FILE "09 - Groovin' (That's What We're Doin').wav" WAVE
TRACK 09 AUDIO
TITLE "Groovin' (That's What We're Doin')"
PERFORMER "The S.O.S. Band"
INDEX 01 00:00:00
FILE "10 - High Hopes (Edit).wav" WAVE
TRACK 10 AUDIO
TITLE "High Hopes (Edit)"
PERFORMER "The S.O.S. Band"
INDEX 01 00:00:00
FILE "11 - Good & Plenty (7'' Version).wav" WAVE
TRACK 11 AUDIO
TITLE "Good & Plenty (7'' Version)"
PERFORMER "The S.O.S. Band"
INDEX 01 00:00:00
FILE "12 - Good & Plenty (12'' Version).wav" WAVE
TRACK 12 AUDIO
TITLE "Good & Plenty (12'' Version)"
PERFORMER "The S.O.S. Band"
INDEX 01 00:00:00
FILE "13 - Groovin' (That's What We're Doin') (Special Version).wav" WAVE
TRACK 13 AUDIO
TITLE "Groovin' (That's What We're Doin') (Special Version)"
PERFORMER "The S.O.S. Band"
INDEX 01 00:00:00
FILE "14 - Your Love (It's The One For Me) (U.S. 12'' Version).wav" WAVE
TRACK 14 AUDIO
TITLE "Your Love (It's The One For Me) (U.S. 12'' Version)"
PERFORMER "The S.O.S. Band"
INDEX 01 00:00:00
Приватный:
Нет (DHT включён)
Размер:
635.72 Мб (666,603,365 байт) » файлов: 32
Участники:
0 раздают, 0 качают (0 участников всего)
Внешние участники:
2 раздают, 1 качают (3 участников всего) [ Обновить ]
Есть вопросы - пишите личное сообщение пользователю M0p94ok.
06:06
320
Нет комментариев. Ваш будет первым!