Поиск

(Funk, Soul, Fusion) [CD] Ernie Watts - Musican - 1985 (2014 Japan Edition), FLAC (tracks+.cue), lossless

(Funk, Soul, Fusion) [CD] Ernie Watts - Musican - 1985 (2014 Japan Edition), FLAC (tracks+.cue), lossless
Треклист:
Ernie Watts - Musican
Жанр: Funk, Soul, Fusion
Носитель: CD
Страна-производитель диска (релиза): Япония
Год издания: 1985 (2014)
Издатель (лейбл): Qwest/WEA/Warner (Fusion Best Collection 1000)
Номер по каталогу: WPCR-28068
Аудиокодек: FLAC (*.flac)
Тип рипа: tracks+.cue
Битрейт аудио: lossless
Продолжительность: 37:44
Источник (релизер): JET 1
Наличие сканов в содержимом раздачи: да
Треклист:
01. Music Prayer for Peace (Perry) - 4:23
02. Where the Spirit Lives (Grusin) - 5:01
03. Rock Camping (Grusin) - 5:04
04. One Love (Watts-Grusin) - 4:13
05. Red Dress (Grusin) - 4:16
06. Looking Glass (Watts) - 4:05
07. Don't You Know (Perry) - 3:14
08. Urban Renewal (Watts) - 4:02
09. Keepin' On (Perry-Grusin) - 3:26
 
Лог создания рипа
Exact Audio Copy V1.0 beta 3 from 29. August 2011
EAC extraction logfile from 16. May 2015, 11:58
Ernie Watts / Musican
Used drive : ATAPI DVD A DH16A6L-C Adapter: 2 ID: 0
Read mode : Secure
Utilize accurate stream : Yes
Defeat audio cache : Yes
Make use of C2 pointers : No
Read offset correction : 6
Overread into Lead-In and Lead-Out : No
Fill up missing offset samples with silence : Yes
Delete leading and trailing silent blocks : No
Null samples used in CRC calculations : Yes
Used interface : Native Win32 interface for Win NT & 2000
Gap handling : Appended to previous track
Used output format : User Defined Encoder
Selected bitrate : 1024 kBit/s
Quality : High
Add ID3 tag : No
Command line compressor : C:\Program Files\FLAC\flac.exe
Additional command line options : -8 -V -T "ARTIST=%artist%" -T "TITLE=%title%" -T "ALBUM=%albumtitle%" -T "DATE=%year%" -T "TRACKNUMBER=%tracknr%" -T "GENRE=%genre%" -T "PERFORMER=%albuminterpret%" -T "COMPOSER=%composer%" %haslyrics%--tag-from-file=LYRICS="%lyricsfile%"%haslyrics% -T "ALBUMARTIST=%albumartist%" -T "DISCNUMBER=%cdnumber%" -T "TOTALDISCS=%totalcds%" -T "TOTALTRACKS=%numtracks%" -T "COMMENT=%comment%" %source% -o %dest%
TOC of the extracted CD
Track | Start | Length | Start sector | End sector
---------------------------------------------------------
1 | 0:00.00 | 4:23.14 | 0 | 19738
2 | 4:23.14 | 5:00.43 | 19739 | 42281
3 | 9:23.57 | 5:03.73 | 42282 | 65079
4 | 14:27.55 | 4:12.56 | 65080 | 84035
5 | 18:40.36 | 4:16.03 | 84036 | 103238
6 | 22:56.39 | 4:04.74 | 103239 | 121612
7 | 27:01.38 | 3:14.20 | 121613 | 136182
8 | 30:15.58 | 4:01.43 | 136183 | 154300
9 | 34:17.26 | 3:25.46 | 154301 | 169721
Track 1
Filename H:\0\..................00\0000POSTTT\Ernie Watts ‎- Musican (1985) [2014 Japan]\01 - Music Prayer For Peace.wav
Pre-gap length 0:00:02.00
Peak level 100.0 %
Extraction speed 3.5 X
Track quality 100.0 %
Test CRC 683A50F9
Copy CRC 683A50F9
Track not present in AccurateRip database
Copy OK
Track 2
Filename H:\0\..................00\0000POSTTT\Ernie Watts ‎- Musican (1985) [2014 Japan]\02 - Where The Spirit Lives.wav
Pre-gap length 0:00:01.09
Peak level 97.7 %
Extraction speed 3.9 X
Track quality 100.0 %
Test CRC B6F1B802
Copy CRC B6F1B802
Track not present in AccurateRip database
Copy OK
Track 3
Filename H:\0\..................00\0000POSTTT\Ernie Watts ‎- Musican (1985) [2014 Japan]\03 - Rock Camping.wav
Pre-gap length 0:00:00.72
Peak level 97.7 %
Extraction speed 4.4 X
Track quality 100.0 %
Test CRC CDF8B14E
Copy CRC CDF8B14E
Track not present in AccurateRip database
Copy OK
Track 4
Filename H:\0\..................00\0000POSTTT\Ernie Watts ‎- Musican (1985) [2014 Japan]\04 - One Love.wav
Pre-gap length 0:00:01.20
Peak level 99.9 %
Extraction speed 4.6 X
Track quality 100.0 %
Test CRC 6ED0F386
Copy CRC 6ED0F386
Track not present in AccurateRip database
Copy OK
Track 5
Filename H:\0\..................00\0000POSTTT\Ernie Watts ‎- Musican (1985) [2014 Japan]\05 - Red Dress.wav
Pre-gap length 0:00:01.16
Peak level 100.0 %
Extraction speed 4.9 X
Track quality 100.0 %
Test CRC 6D1B447B
Copy CRC 6D1B447B
Track not present in AccurateRip database
Copy OK
Track 6
Filename H:\0\..................00\0000POSTTT\Ernie Watts ‎- Musican (1985) [2014 Japan]\06 - Looking Glass.wav
Pre-gap length 0:00:01.06
Peak level 97.6 %
Extraction speed 4.2 X
Track quality 99.9 %
Test CRC CA60E557
Copy CRC CA60E557
Track not present in AccurateRip database
Copy OK
Track 7
Filename H:\0\..................00\0000POSTTT\Ernie Watts ‎- Musican (1985) [2014 Japan]\07 - Don't You Know.wav
Pre-gap length 0:00:01.17
Peak level 100.0 %
Extraction speed 5.1 X
Track quality 100.0 %
Test CRC 7A0FE9A8
Copy CRC 7A0FE9A8
Track not present in AccurateRip database
Copy OK
Track 8
Filename H:\0\..................00\0000POSTTT\Ernie Watts ‎- Musican (1985) [2014 Japan]\08 - Urban Renewal.wav
Pre-gap length 0:00:01.14
Peak level 100.0 %
Extraction speed 5.4 X
Track quality 100.0 %
Test CRC 239E12B0
Copy CRC 239E12B0
Track not present in AccurateRip database
Copy OK
Track 9
Filename H:\0\..................00\0000POSTTT\Ernie Watts ‎- Musican (1985) [2014 Japan]\09 - Keepin' On.wav
Pre-gap length 0:00:01.22
Peak level 97.7 %
Extraction speed 5.5 X
Track quality 100.0 %
Test CRC FDF92B75
Copy CRC FDF92B75
Track not present in AccurateRip database
Copy OK
None of the tracks are present in the AccurateRip database
No errors occurred
End of status report
==== Log checksum 5C35B7C0355F94A2AD7F2180A8C10F01F5638349D0FEB0C514F95748558CC788 ====
 
Содержание индексной карты (.CUE)
REM GENRE Jazz
REM DATE 1985
REM DISCID 7C08D609
REM COMMENT "ExactAudioCopy v1.0b3"
PERFORMER "Ernie Watts"
TITLE "Musican"
FILE "01 - Music Prayer for Peace.wav" WAVE
TRACK 01 AUDIO
TITLE "Music Prayer for Peace"
PERFORMER "Ernie Watts"
INDEX 01 00:00:00
TRACK 02 AUDIO
TITLE "Where the Spirit Lives"
PERFORMER "Ernie Watts"
INDEX 00 04:22:05
FILE "02 - Where the Spirit Lives.wav" WAVE
INDEX 01 00:00:00
TRACK 03 AUDIO
TITLE "Rock Camping"
PERFORMER "Ernie Watts"
INDEX 00 04:59:46
FILE "03 - Rock Camping.wav" WAVE
INDEX 01 00:00:00
TRACK 04 AUDIO
TITLE "One Love"
PERFORMER "Ernie Watts"
INDEX 00 05:02:53
FILE "04 - One Love.wav" WAVE
INDEX 01 00:00:00
TRACK 05 AUDIO
TITLE "Red Dress"
PERFORMER "Ernie Watts"
INDEX 00 04:11:40
FILE "05 - Red Dress.wav" WAVE
INDEX 01 00:00:00
TRACK 06 AUDIO
TITLE "Looking Glass"
PERFORMER "Ernie Watts"
INDEX 00 04:14:72
FILE "06 - Looking Glass.wav" WAVE
INDEX 01 00:00:00
TRACK 07 AUDIO
TITLE "Don't You Know"
PERFORMER "Ernie Watts"
INDEX 00 04:03:57
FILE "07 - Don't You Know.wav" WAVE
INDEX 01 00:00:00
TRACK 08 AUDIO
TITLE "Urban Renewal"
PERFORMER "Ernie Watts"
INDEX 00 03:13:06
FILE "08 - Urban Renewal.wav" WAVE
INDEX 01 00:00:00
TRACK 09 AUDIO
TITLE "Keepin' On"
PERFORMER "Ernie Watts"
INDEX 00 04:00:21
FILE "09 - Keepin' On.wav" WAVE
INDEX 01 00:00:00
 
Об альбоме (сборнике)
A jazz saxophonist whose experience dates back to the 60s and cites John Coltrane and Buddy Rich as influences, this 1985 album finds Ernie Watts going for a more modern sound but still demonstrating strong solid musicianship that makes this album sound as good for its time as some of his earlier albums sounded when they were new. Like many albums on the Qwest record label, this album definitely has some noticeable R&B touches, and Watts' energetic saxophone playing melds nicely with some of the funky, synthesized beats that give this album its distinctive 1985-ness. Underrated but fiery vocalist Phil Perry contributes vocals to 3 songs, and his soulful, passionate voice only deeper enriches an already solid formula.
-- Glen Zimmerman
 
Состав
Ernie Watts - tenor saxophone, alto saxophone, soprano saxophone
Phil Perry - vocals
Don Grusin - keyboards
Paul Jackson - guitar
Nathan East - bass
John Robinson - drums
Paulinho Da Costa - percussion
Jerry Hey, Gary Grant - flugelhorn
Gary Herbig - alto flute
Lew McCreary - bass trumpet
Jeremy Lubbock - conductor (strings)
Gerry Vinci - concertmaster
Recorded at Reggie Fisher Studio, Studio City, CA; One On One Studios, No. Hollywood; Yamaha Studio, Glendale, CA; Westlake Hollywood.
Приватный:
Нет (DHT включён)
Размер:
315.54 Мб (330,868,413 байт) » файлов: 23
Участники:
0 раздают, 0 качают (0 участников всего)
Внешние участники:
5 раздают, 2 качают (7 участников всего) [ Обновить ]
No seeders - write a personal message to user M0p94ok. Нет сидеров - пишите личное сообщение пользователю M0p94ok.
06:05
68
Нет комментариев. Ваш будет первым!