Поиск

(Funk) [CD] Bernie Worrell (with David Byrne, Keith Richards, Herbie Hancock, Maceo Parker, Chris Spedding, Vernon Reid, Dennis Chambers etc.) - Funk Of Ages - 1990, FLAC (tracks+.cue), lossless

(Funk) [CD] Bernie Worrell (with David Byrne, Keith Richards, Herbie Hancock, Maceo Parker, Chris Spedding, Vernon Reid, Dennis Chambers etc.) - Funk Of Ages - 1990, FLAC (tracks+.cue), lossless
Треклист:
Bernie Worrell / Funk Of Ages
Жанр: Funk
Носитель: CD
Страна-производитель диска (релиза): Japan
Год издания: 1990
Издатель (лейбл): Gramavision / Tokuma Japan Corporation
Номер по каталогу: TKCB-30171
Страна исполнителя (группы): USA
Аудиокодек: FLAC (*.flac)
Тип рипа: tracks+.cue
Битрейт аудио: lossless
Продолжительность: 49:05
Источник (релизер): gssmg7
Наличие сканов в содержимом раздачи: да
Треклист:
01. Sing (4:34)
Written by Bernie Worrell, David Byrne, Mike Hampton
Bernie Worrell - synthesizer, organ, synth bass, lead Vocals
Steve Ferrone - drums
Jimmy Ripp - guitar, electric sitar
Mike Hampton - guitar
Larry Fratangelo - percussion
David Byrne, Gary "Mudbone" Cooper, Sheila Washington - backing vocals
02. B.W. Jam (3:30)
Written by Bernie Worrell, Gary Cooper, Joe Polanco
Bernie Worrell - clavinet, synthesizer, synth bass, percussion
Joe Polanco and Gary "Mudbone" Cooper - drum programming, synth horns, samples, sequencing
Uptown Horns - horns
Bernie Worrell, Gary "Mudbone" Cooper, Jenny Douglas McRae, Sheila Washington, Steve Washington - backing vocals
03. Funk-A-Hall-Licks (5:20)
Written by Bernie Worrell, William Collins, Gary Cooper
Bernie Worrell - clavinet, synthesizer, organ, lead vocal
William "Bootsy" Collins - bass, guitar
Steve Jordan - drums
Herbie Hancock - keyboards
Keith Richards and Jimmy Ripp - guitar
Maceo Parker - saxophone
Gary "Mudbone" Cooper, Sheila Washington, Jody Bell, Doug Duffy - backing vocals
04. Ain't She Sweet (5:02)
Written by Yellen, Ager; arranged by Bootsy and Bernie
Bernie Worrell - Piano, synthesizer, synth bass, vocals
William "Bootsy" Collins - bass, drum programming, vocals
Herbie Hancock - synthesizer
Larry Fratangelo - percussion
Jimmy Ripp - banjo
Gary "Mudbone" Cooper - vocals
05. Y-Spy (4:27)
Written by Bernie Worrell, Steve Jordan, Charley Drayton
Bernie Worrell - clavinet, synthesizer, organ, lead vocal
Steve Jordan - drums, guitar, percussion, vocal
Charley Drayton - bass, snare, lap steel guitar, percussion
Keith Richards - guitar
Gary "Mudbone" Cooper, Loren Qualls - vocals
06. Real Life Dreams (4:43)
Written by Bernie Worrell, David Nyce
Bernie Worrell - clavinet, synthesizer, organ, lead vocal
Sly Dunbar - drums
Robbie Shakespeare - bass
Jimmy Ripp, Steve Jordan - guitar
Larry Fratangelo, Gary Cooper - percussion
Sheila Washington, Jody Bell - backing vocal
07. Beware Of Dog (2:37)
Written by Bernie Worrell, Dougie Bowne, Mac Bowne
Bernie Worrell - clavinet, synthesizer, organ
Vernon Reid - guitar
Doug Bowne - drums
Jimmy Hawkes - bass
Maceo Parker - sax
08. Straight Ahead (3:59)
Written by Bernie Worrell, Steve Washington, John DeNicola, Pat Maloney, Gil Small
Bernie Worrell - clavinet, synthesizer, synth bass, lead vocal
Steve Ferrone - drums
Jimmy Ripp - guitar
Warren McRae - bass
Gary "Mudbone" Cooper, Sheila Washington, Patty Maloney, John DeNicola, Michael Camacho, Doug Duffy - backing vocals
09. Don't Piss Me Off (4:26)
Written by Bernie Worrell, Jerry Harrison, Charlie Midnight
Bernie Worrell - synthesizer, synth bass, samles
Phoebe Snow, Gary "Mudbone" Cooper - lead vocals
Jerry Harrison - organ
Dennis Chambers - drums
Chris Spedding - slide guitar
Keith Richards, Jimmy Ripp - guitar
David D. - turntable
Jerome Brailey - percussion
Bernie Worrell, Butch Alexander, Gary "Mudbone" Cooper, Sheila Washington, Rosemary Camera, Jody Bell - backing vocals
10. Volunteered Slavery/Bern's Blues/Outer Spaceways (4:45)
Volunteered Slavery written by Rahsaan Roland Kirk; Bern's Blues written by Bernie Worrell and Outer Spaceways written by Sun Ra
Bernie Worrell - hammond B-3 organ, electric piano, vocals
Gary "Mudbone" Cooper - vocals
Aiby Dieng - chatan, conga, tambourine and bells
11. At Mos'Spheres (3:55)
Written by Bernie Worrell
Bernie Worrell - hammond B-3 organ and DX-7
12. Real Life Dreams On (1:39)
Written by Bernie Worrell, David Nyce
Bernie Worrell - organ, clavinet, synthesizer
Sly Dunbar - drums
Robbie Shakespeare - bass
Jimmy Ripp, Steve Jordan - guitar
Larry Fratangelo, Gary "Mudbone" Cooper - percussion
Produced by Joe Blaney and Bernie Worrell, Bill Laswell (tracks 10, 11)
 
Лог создания рипа
Exact Audio Copy V1.0 beta 2 from 29. April 2011
EAC extraction logfile from 19. April 2015, 16:04
Bernie Worrell / Funk Of Ages
Used drive : Optiarc DVD RW AD-5280S Adapter: 1 ID: 1
Read mode : Secure
Utilize accurate stream : Yes
Defeat audio cache : Yes
Make use of C2 pointers : No
Read offset correction : 48
Overread into Lead-In and Lead-Out : No
Fill up missing offset samples with silence : Yes
Delete leading and trailing silent blocks : No
Null samples used in CRC calculations : Yes
Used interface : Installed external ASPI interface
Gap handling : Appended to previous track
Used output format : User Defined Encoder
Selected bitrate : 128 kBit/s
Quality : High
Add ID3 tag : No
Command line compressor : C:\Program Files\FLAC\flac.exe
Additional command line options : -V -8 -T "Genre=%genre%" -T "Artist=%artist%" -T "Title=%title%" -T "Album=%albumtitle%" -T "Date=%year%" -T "Tracknumber=%tracknr%" -T "Comment=%comment%" %source%
TOC of the extracted CD
Track | Start | Length | Start sector | End sector
---------------------------------------------------------
1 | 0:00.00 | 4:33.62 | 0 | 20536
2 | 4:33.62 | 3:30.63 | 20537 | 36349
3 | 8:04.50 | 5:21.72 | 36350 | 60496
4 | 13:26.47 | 5:02.25 | 60497 | 83171
5 | 18:28.72 | 4:27.73 | 83172 | 103269
6 | 22:56.70 | 4:43.15 | 103270 | 124509
7 | 27:40.10 | 2:37.50 | 124510 | 136334
8 | 30:17.60 | 3:59.07 | 136335 | 154266
9 | 34:16.67 | 4:26.48 | 154267 | 174264
10 | 38:43.40 | 4:46.42 | 174265 | 195756
11 | 43:30.07 | 3:55.23 | 195757 | 213404
12 | 47:25.30 | 1:39.62 | 213405 | 220891
Track 1
Filename C:\Bernie Worrell (1990) - Funk Of Ages\01 - Sing.wav
Pre-gap length 0:00:02.00
Peak level 97.2 %
Extraction speed 2.6 X
Track quality 100.0 %
Test CRC 01FA66E5
Copy CRC 01FA66E5
Accurately ripped (confidence 1) [3A074E5D] (AR v2)
Copy OK
Track 2
Filename C:\Bernie Worrell (1990) - Funk Of Ages\02 - B.W. Jam.wav
Peak level 97.7 %
Extraction speed 2.4 X
Track quality 99.9 %
Test CRC 6D9C9C45
Copy CRC 6D9C9C45
Accurately ripped (confidence 1) [1CA179B7] (AR v2)
Copy OK
Track 3
Filename C:\Bernie Worrell (1990) - Funk Of Ages\03 - Funk-A-Hall-Licks.wav
Peak level 95.0 %
Extraction speed 3.1 X
Track quality 100.0 %
Test CRC F2DEFC9B
Copy CRC F2DEFC9B
Accurately ripped (confidence 1) [9FCD8AD5] (AR v2)
Copy OK
Track 4
Filename C:\Bernie Worrell (1990) - Funk Of Ages\04 - Ain't She Sweet.wav
Pre-gap length 0:00:00.50
Peak level 95.0 %
Extraction speed 3.4 X
Track quality 100.0 %
Test CRC 5B975F4C
Copy CRC 5B975F4C
Accurately ripped (confidence 1) [56A412F2] (AR v2)
Copy OK
Track 5
Filename C:\Bernie Worrell (1990) - Funk Of Ages\05 - Y-Spy.wav
Peak level 97.7 %
Extraction speed 3.6 X
Track quality 100.0 %
Test CRC EAC94075
Copy CRC EAC94075
Accurately ripped (confidence 1) [E35A0A7F] (AR v2)
Copy OK
Track 6
Filename C:\Bernie Worrell (1990) - Funk Of Ages\06 - Real Life Dreams.wav
Peak level 97.7 %
Extraction speed 3.5 X
Track quality 99.9 %
Test CRC 4C2EE71B
Copy CRC 4C2EE71B
Accurately ripped (confidence 1) [80E8A2DE] (AR v2)
Copy OK
Track 7
Filename C:\Bernie Worrell (1990) - Funk Of Ages\07 - Beware Of Dog.wav
Peak level 97.7 %
Extraction speed 3.1 X
Track quality 99.9 %
Test CRC 03B9DE73
Copy CRC 03B9DE73
Accurately ripped (confidence 1) [2A3F9BD1] (AR v2)
Copy OK
Track 8
Filename C:\Bernie Worrell (1990) - Funk Of Ages\08 - Straight Ahead.wav
Peak level 97.7 %
Extraction speed 4.1 X
Track quality 100.0 %
Test CRC 4277EFEB
Copy CRC 4277EFEB
Accurately ripped (confidence 1) [DB5C5288] (AR v2)
Copy OK
Track 9
Filename C:\Bernie Worrell (1990) - Funk Of Ages\09 - Don't Piss Me Off.wav
Peak level 95.0 %
Extraction speed 4.3 X
Track quality 100.0 %
Test CRC 73ED8780
Copy CRC 73ED8780
Accurately ripped (confidence 1) [44927BF6] (AR v2)
Copy OK
Track 10
Filename C:\Bernie Worrell (1990) - Funk Of Ages\10 - Volunteered Slavery - Bern's Blues.wav
Peak level 48.9 %
Extraction speed 4.5 X
Track quality 100.0 %
Test CRC D2BD044C
Copy CRC D2BD044C
Accurately ripped (confidence 1) [1F266FC7] (AR v2)
Copy OK
Track 11
Filename C:\Bernie Worrell (1990) - Funk Of Ages\11 - At Mos'Spheres.wav
Peak level 66.8 %
Extraction speed 4.6 X
Track quality 100.0 %
Test CRC 78263417
Copy CRC 78263417
Accurately ripped (confidence 1) [342AAA36] (AR v2)
Copy OK
Track 12
Filename C:\Bernie Worrell (1990) - Funk Of Ages\12 - Real Life Dreams On.wav
Peak level 78.9 %
Extraction speed 4.0 X
Track quality 100.0 %
Test CRC 617D703B
Copy CRC 617D703B
Accurately ripped (confidence 1) [BB822289] (AR v2)
Copy OK
All tracks accurately ripped
No errors occurred
End of status report
==== Log checksum 01CB0A028CD0EF64091B6752927577651020F7590F5D0E304BDFE65E1796D21E ====
 
Содержание индексной карты (.CUE)
REM GENRE Funk
REM DATE 1990
REM DISCID A50B810C
REM COMMENT "ExactAudioCopy v1.0b2"
PERFORMER "Bernie Worrell"
TITLE "Funk Of Ages"
FILE "01 - Sing.wav" WAVE
TRACK 01 AUDIO
TITLE "Sing"
PERFORMER "Bernie Worrell"
INDEX 01 00:00:00
FILE "02 - B.W. Jam.wav" WAVE
TRACK 02 AUDIO
TITLE "B.W. Jam"
PERFORMER "Bernie Worrell"
INDEX 01 00:00:00
FILE "03 - Funk-A-Hall-Licks.wav" WAVE
TRACK 03 AUDIO
TITLE "Funk-A-Hall-Licks"
PERFORMER "Bernie Worrell"
INDEX 01 00:00:00
TRACK 04 AUDIO
TITLE "Ain't She Sweet"
PERFORMER "Bernie Worrell"
INDEX 00 05:21:22
FILE "04 - Ain't She Sweet.wav" WAVE
INDEX 01 00:00:00
FILE "05 - Y-Spy.wav" WAVE
TRACK 05 AUDIO
TITLE "Y-Spy"
PERFORMER "Bernie Worrell"
INDEX 01 00:00:00
FILE "06 - Real Life Dreams.wav" WAVE
TRACK 06 AUDIO
TITLE "Real Life Dreams"
PERFORMER "Bernie Worrell"
INDEX 01 00:00:00
FILE "07 - Beware Of Dog.wav" WAVE
TRACK 07 AUDIO
TITLE "Beware Of Dog"
PERFORMER "Bernie Worrell"
INDEX 01 00:00:00
FILE "08 - Straight Ahead.wav" WAVE
TRACK 08 AUDIO
TITLE "Straight Ahead"
PERFORMER "Bernie Worrell"
INDEX 01 00:00:00
FILE "09 - Don't Piss Me Off.wav" WAVE
TRACK 09 AUDIO
TITLE "Don't Piss Me Off"
PERFORMER "Bernie Worrell"
INDEX 01 00:00:00
FILE "10 - Volunteered Slavery - Bern's Blues.wav" WAVE
TRACK 10 AUDIO
TITLE "Volunteered Slavery - Bern's Blues"
PERFORMER "Bernie Worrell"
INDEX 01 00:00:00
INDEX 02 01:57:15
INDEX 03 03:25:22
FILE "11 - At Mos'Spheres.wav" WAVE
TRACK 11 AUDIO
TITLE "At Mos'Spheres"
PERFORMER "Bernie Worrell"
INDEX 01 00:00:00
FILE "12 - Real Life Dreams On.wav" WAVE
TRACK 12 AUDIO
TITLE "Real Life Dreams On"
PERFORMER "Bernie Worrell"
INDEX 01 00:00:00
 
Об альбоме (сборнике)
Keyboardist Bernie Worrell was one of the key members of George Clinton's "Parlaifunkadelicment Thang" and he later went on to work as a sideman with everyone from Talking Heads to Keith Richards, as well as a long series of projects with producer and Material mastermind Bill Laswell. But outside of All the Woo in the World, a tossed-off project which got lost in the glut of P-Funk-related product released in the late '70s, it wasn't until 1991 that Worrell applied his estimable talent to an album with himself as headliner. Funk of Ages is a glossy set of funk workouts and jazz-influenced side trips with an impressive list of guest stars (including David Byrne, Keith Richards, Vernon Reid, Herbie Hancock, Sly Dunbar, Robbie Shakespeare, and Maceo Parker), and while Worrell certainly gives himself plenty of room to show off his estimable skill at the keyboard, he also has the good sense to make room for his friends and collaborators, giving the album the sound and feel of a group effort rather than a declaration of musical independence. In fact, if the album has a flaw, it's that it lacks a central presence giving the material an anchor; this eternal sideman certainly has the skills to take the reins on an album, but this set suggests he lacks the ego to do so (and he's not much of a lead singer). But his years with Clinton and Laswell have taught Worrell more than a little about the fine art of getting a groove on, and Funk of Ages serves up thick, juicy rhythms topped with smart and flavorful melodic support; it's a more ambitious and enjoyable album than anything George Clinton cooked up on his own in the 1990s. ~ mark deming, allmusic.com
Приватный:
Нет (DHT включён)
Размер:
313.16 Мб (328,375,607 байт) » файлов: 20
Участники:
0 раздают, 0 качают (0 участников всего)
Внешние участники:
7 раздают, 2 качают (9 участников всего) [ Обновить ]
No seeders - write a personal message to user M0p94ok. Нет сидеров - пишите личное сообщение пользователю M0p94ok.
06:04
62
Нет комментариев. Ваш будет первым!