Поиск

(Soul-Jazz, Funk, Easy Listening) [CD] Harold Johnson Sextet - House On Elm Street (1967) - 2000, FLAC (tracks+.cue), lossless

(Soul-Jazz, Funk, Easy Listening) [CD] Harold Johnson Sextet - House On Elm Street (1967) - 2000, FLAC (tracks+.cue), lossless
Треклист:
Harold Johnson Sextet / House On Elm Street (1967)
Жанр: Soul-Jazz, Funk, Easy Listening
Носитель: CD
Страна-производитель диска (релиза): Italy
Год издания: 2000
Издатель (лейбл): Vintage Classic Series
Номер по каталогу: VCS 009
Страна исполнителя (группы): USA
Аудиокодек: FLAC (*.flac)
Тип рипа: tracks+.cue
Битрейт аудио: lossless
Продолжительность: 40:12
Источник (релизер): manhneovn
Наличие сканов в содержимом раздачи: да
Треклист:
01 House On Elm Street 07:10
02 Have You Got Good Religion? 03:00
03 Delores 03:15
04 Watts '67 03:45
05 Alfie 02:45
06 Sunny 02:50
07 Something Mellow 02:45
08 Yeh Uh Huh 02:50
09 Moses 07:10
 
Лог создания рипа
Exact Audio Copy V1.0 beta 3 from 29. August 2011
EAC extraction logfile from 21. May 2014, 16:14
Harold Johnson Sextet / House On Elm Street
Used drive : HL-DT-STDVDRAM GT51N Adapter: 0 ID: 1
Read mode : Secure
Utilize accurate stream : Yes
Defeat audio cache : Yes
Make use of C2 pointers : No
Read offset correction : 103
Overread into Lead-In and Lead-Out : No
Fill up missing offset samples with silence : Yes
Delete leading and trailing silent blocks : No
Null samples used in CRC calculations : Yes
Used interface : Native Win32 interface for Win NT & 2000
Gap handling : Appended to previous track
Used output format : User Defined Encoder
Selected bitrate : 1024 kBit/s
Quality : High
Add ID3 tag : No
Command line compressor : C:\Program Files (x86)\FLAC\flac.exe
Additional command line options : -8 -V -T "ARTIST=%artist%" -T "TITLE=%title%" -T "ALBUM=%albumtitle%" -T "DATE=%year%" -T "TRACKNUMBER=%tracknr%" -T "GENRE=%genre%" -T "PERFORMER=%albuminterpret%" -T "COMPOSER=%composer%" %haslyrics%--tag-from-file=LYRICS="%lyricsfile%"%haslyrics% -T "ALBUMARTIST=%albumartist%" -T "DISCNUMBER=%cdnumber%" -T "TOTALDISCS=%totalcds%" -T "TOTALTRACKS=%numtracks%" -T "COMMENT=%comment%" %source% -o %dest%
TOC of the extracted CD
Track | Start | Length | Start sector | End sector
---------------------------------------------------------
1 | 0:00.00 | 7:54.74 | 0 | 35623
2 | 7:54.74 | 3:42.35 | 35624 | 52308
3 | 11:37.34 | 4:15.11 | 52309 | 71444
4 | 15:52.45 | 4:28.30 | 71445 | 91574
5 | 20:21.00 | 2:52.58 | 91575 | 104532
6 | 23:13.58 | 3:55.69 | 104533 | 122226
7 | 27:09.52 | 2:20.72 | 122227 | 132798
8 | 29:30.49 | 2:54.07 | 132799 | 145855
9 | 32:24.56 | 7:47.52 | 145856 | 180932
Track 1
Filename C:\EAC Rips\Harold Johnson Sextet - House On Elm Street (1967) {RE, VCS 009}\01 House On Elm Street.wav
Pre-gap length 0:00:02.00
Peak level 97.7 %
Extraction speed 3.2 X
Track quality 100.0 %
Test CRC 0DAED144
Copy CRC 0DAED144
Accurately ripped (confidence 2) [10D22E15] (AR v1)
Copy OK
Track 2
Filename C:\EAC Rips\Harold Johnson Sextet - House On Elm Street (1967) {RE, VCS 009}\02 Have You Got Good Religion.wav
Pre-gap length 0:00:02.00
Peak level 97.7 %
Extraction speed 3.3 X
Track quality 100.0 %
Test CRC 399AB0D0
Copy CRC 399AB0D0
Accurately ripped (confidence 1) [FA4F3101] (AR v1)
Copy OK
Track 3
Filename C:\EAC Rips\Harold Johnson Sextet - House On Elm Street (1967) {RE, VCS 009}\03 Delores.wav
Pre-gap length 0:00:02.00
Peak level 97.7 %
Extraction speed 3.6 X
Track quality 100.0 %
Test CRC 283C3FC1
Copy CRC 283C3FC1
Accurately ripped (confidence 1) [AC34B1E3] (AR v1)
Copy OK
Track 4
Filename C:\EAC Rips\Harold Johnson Sextet - House On Elm Street (1967) {RE, VCS 009}\04 Watt's '67.wav
Pre-gap length 0:00:02.00
Peak level 97.7 %
Extraction speed 3.9 X
Track quality 100.0 %
Test CRC 05975D4F
Copy CRC 05975D4F
Accurately ripped (confidence 1) [8B7ABFDA] (AR v1)
Copy OK
Track 5
Filename C:\EAC Rips\Harold Johnson Sextet - House On Elm Street (1967) {RE, VCS 009}\05 Alfie.wav
Pre-gap length 0:00:02.00
Peak level 97.7 %
Extraction speed 3.9 X
Track quality 100.0 %
Test CRC E80552EE
Copy CRC E80552EE
Accurately ripped (confidence 1) [919B25FF] (AR v1)
Copy OK
Track 6
Filename C:\EAC Rips\Harold Johnson Sextet - House On Elm Street (1967) {RE, VCS 009}\06 Sunny.wav
Pre-gap length 0:00:02.00
Peak level 97.7 %
Extraction speed 4.2 X
Track quality 100.0 %
Test CRC 78E946C8
Copy CRC 78E946C8
Accurately ripped (confidence 1) [794A6237] (AR v1)
Copy OK
Track 7
Filename C:\EAC Rips\Harold Johnson Sextet - House On Elm Street (1967) {RE, VCS 009}\07 Something Mellow.wav
Pre-gap length 0:00:02.00
Peak level 97.7 %
Extraction speed 4.0 X
Track quality 100.0 %
Test CRC 1006D5E8
Copy CRC 1006D5E8
Accurately ripped (confidence 1) [234CA1E0] (AR v1)
Copy OK
Track 8
Filename C:\EAC Rips\Harold Johnson Sextet - House On Elm Street (1967) {RE, VCS 009}\08 Yeh Uh Huh.wav
Pre-gap length 0:00:02.00
Peak level 97.7 %
Extraction speed 4.3 X
Track quality 100.0 %
Test CRC E01D0A92
Copy CRC E01D0A92
Accurately ripped (confidence 1) [26DBF292] (AR v1)
Copy OK
Track 9
Filename C:\EAC Rips\Harold Johnson Sextet - House On Elm Street (1967) {RE, VCS 009}\09 Moses.wav
Pre-gap length 0:00:02.00
Peak level 97.7 %
Extraction speed 5.1 X
Track quality 100.0 %
Test CRC A9A412CF
Copy CRC A9A412CF
Accurately ripped (confidence 1) [EAA04A69] (AR v1)
Copy OK
All tracks accurately ripped
No errors occurred
End of status report
---- CUETools DB Plugin V2.1.3
[CTDB TOCID: 8_xsLIS1nCgo0UuYVrUoumeJvKM-] disk not present in database, Submit result: 8_xsLIS1nCgo0UuYVrUoumeJvKM- has been uploaded
==== Log checksum 51D31B7E439B3ABB865005BBA04FFF1693A9F3E867CD8D2B327693889BAF4037 ====
 
Содержание индексной карты (.CUE)
REM GENRE "Jazz, Funk / Soul"
REM DATE 1967
REM DISCID 87096C09
REM COMMENT "ExactAudioCopy v1.0b3"
PERFORMER "Harold Johnson Sextet"
TITLE "House On Elm Street"
FILE "01 House On Elm Street.wav" WAVE
TRACK 01 AUDIO
TITLE "House On Elm Street"
PERFORMER "Harold Johnson Sextet"
INDEX 01 00:00:00
TRACK 02 AUDIO
TITLE "Have You Got Good Religion?"
PERFORMER "Harold Johnson Sextet"
INDEX 00 07:52:74
FILE "02 Have You Got Good Religion.wav" WAVE
INDEX 01 00:00:00
TRACK 03 AUDIO
TITLE "Delores"
PERFORMER "Harold Johnson Sextet"
INDEX 00 03:40:35
FILE "03 Delores.wav" WAVE
INDEX 01 00:00:00
TRACK 04 AUDIO
TITLE "Watt's '67"
PERFORMER "Harold Johnson Sextet"
INDEX 00 04:13:11
FILE "04 Watt's '67.wav" WAVE
INDEX 01 00:00:00
TRACK 05 AUDIO
TITLE "Alfie"
PERFORMER "Harold Johnson Sextet"
INDEX 00 04:26:30
FILE "05 Alfie.wav" WAVE
INDEX 01 00:00:00
TRACK 06 AUDIO
TITLE "Sunny"
PERFORMER "Harold Johnson Sextet"
INDEX 00 02:50:58
FILE "06 Sunny.wav" WAVE
INDEX 01 00:00:00
TRACK 07 AUDIO
TITLE "Something Mellow"
PERFORMER "Harold Johnson Sextet"
INDEX 00 03:53:69
FILE "07 Something Mellow.wav" WAVE
INDEX 01 00:00:00
TRACK 08 AUDIO
TITLE "Yeh Uh Huh"
PERFORMER "Harold Johnson Sextet"
INDEX 00 02:18:72
FILE "08 Yeh Uh Huh.wav" WAVE
INDEX 01 00:00:00
TRACK 09 AUDIO
TITLE "Moses"
PERFORMER "Harold Johnson Sextet"
INDEX 00 02:52:07
FILE "09 Moses.wav" WAVE
INDEX 01 00:00:00
 
Лог проверки качества
-----------------------
DON'T MODIFY THIS FILE
-----------------------
PERFORMER: auCDtect Task Manager, ver. 1.6.0 RC1 build 1.6.0.1
Copyright (c) 2008-2010 y-soft. All rights reserved
http://y-soft.org
ANALYZER: auCDtect: CD records authenticity detector, version 0.8.2
Copyright (c) 2004 Oleg Berngardt. All rights reserved.
Copyright (c) 2004 Alexander Djourik. All rights reserved.
FILE: 01 House On Elm Street.flac
Size: 50591706 Hash: 439082D916F47881CBE0450396127E78 Accuracy: -m0
Conclusion: CDDA 100%
Signature: 1E9CE9525425C15F0D5F13172BD64198E68298D5
FILE: 02 Have You Got Good Religion.flac
Size: 25700451 Hash: EA5C5B474D5A7AD454A9FEBC662120E4 Accuracy: -m0
Conclusion: CDDA 100%
Signature: 8A0F4A140397D4455A43B0F3972503CF7C5FADD5
FILE: 03 Delores.flac
Size: 27329995 Hash: 2C4F60D9B6DA0FC9855D55CCEF8054D4 Accuracy: -m0
Conclusion: CDDA 100%
Signature: 16B49FAAD70022BE7B1EB633DD44DD5D21B6F375
FILE: 04 Watt's '67.flac
Size: 27445880 Hash: A1D6733DEF07DB8B97E33319F41AFDE3 Accuracy: -m0
Conclusion: CDDA 100%
Signature: 4B269D77F0465FAC21EC62881A2DAB270EE111EB
FILE: 05 Alfie.flac
Size: 20025207 Hash: F33828DA8AD54B39518AF00AEA6169D2 Accuracy: -m0
Conclusion: CDDA 100%
Signature: 39C753C38A88C613BAD4F7C87FA1FD161C26BBC8
FILE: 06 Sunny.flac
Size: 25076449 Hash: 6F8634AE29E3E4529D72DD5D240CF35F Accuracy: -m0
Conclusion: CDDA 100%
Signature: 5F84A6F5E258FA609061BB7C8CC9116B7BC0E5AD
FILE: 07 Something Mellow.flac
Size: 16378505 Hash: C88D1B47E78E0257B7312D0DBE21F42D Accuracy: -m0
Conclusion: CDDA 100%
Signature: 6A066BEFA3F8069AA50E475DF2A7FDC94FFE7AF7
FILE: 08 Yeh Uh Huh.flac
Size: 19753221 Hash: 9D9690503833CA7C00274FB938ED1EDC Accuracy: -m0
Conclusion: CDDA 100%
Signature: F4AD40F4B23669336164BFB037541E3020A895F3
FILE: 09 Moses.flac
Size: 44537401 Hash: 3A32DBF92770C20028DBF900056D243F Accuracy: -m0
Conclusion: CDDA 100%
Signature: EF8C603D9BBA5A705416AEF978DADE89848CAA14
 
Об альбоме (сборнике)
On this killer album, cut in 1967 for the independent west coast label Revue, the Harold Johnson Sextet counts actually eight musicians. But the core band is formed by Harold Johnson on piano, Jimmy Nash on bass, Ronald Rutledge on drums and Billy Jackson on congas. The four reedsmen show up occasionally, but place accents where needed. Especially flautist David Crawford.
The sound quality is not fantastic, but somehow the poor remastering works well for this kind of loungy music.
The booklet is very sparing of information and the given running time of the tracks is completely nonsense. I guess this nonchalance is part of the charm of the reprint on the Italian Vintage label?
Anyway, this discovery is a real treat!
 
Состав
Alfred Patterson - Alto Saxophone
Eddie Synigal - Alto Saxophone
Jimmy Nash - Bass
Ronald Rutledge - Drums
David Crawford - Flute
Billy Jackson - Percussion (Conga Drums) (№ 04)
Harold Johnson - Piano
Mike Shaw - Tenor Saxophone (№ 05)
Приватный:
Нет (DHT включён)
Размер:
261.04 Мб (273,719,695 байт) » файлов: 18
Участники:
0 раздают, 0 качают (0 участников всего)
Внешние участники:
2 раздают, 1 качают (3 участников всего) [ Обновить ]
No seeders - write a personal message to user M0p94ok. Нет сидеров - пишите личное сообщение пользователю M0p94ok.
06:03
67
Нет комментариев. Ваш будет первым!