Поиск

(Funk, Soul) [CD] Con Funk Shun - Loveshine (1978) - 2014, FLAC (tracks+.cue), lossless

(Funk, Soul) [CD] Con Funk Shun - Loveshine (1978) - 2014, FLAC (tracks+.cue), lossless
Треклист:
Con Funk Shun - Loveshine (1978)
Жанр: Funk, Soul
Носитель: CD
Страна-производитель диска (релиза): Japan
Год издания: 2014
Издатель (лейбл): Mercury
Номер по каталогу: UICY 76628
Аудиокодек: FLAC (*.flac)
Тип рипа: tracks+.cue
Битрейт аудио: lossless
Продолжительность: 41:10
Rip by JET 1
Наличие сканов в содержимом раздачи: да
Треклист:
01. So Easy (4:32)
02. Magic Woman (4:16)
03. Shake And Dance With Me (3:51)
04. Make It Last (5:02)
05. Loveshine (4:53)
06. When The Feeling's Right (5:40)
07. I Think I Found The Answer (4:31)
08. Wanna Be There (4:24)
09. Can't Go Away (4:02)
 
 
Лог создания рипа
Exact Audio Copy V1.0 beta 3 from 29. August 2011
EAC extraction logfile from 12. May 2015, 18:35
Con Funk Shun / Loveshine
Used drive : ATAPI DVD A DH16A6L-C Adapter: 2 ID: 0
Read mode : Secure
Utilize accurate stream : Yes
Defeat audio cache : Yes
Make use of C2 pointers : No
Read offset correction : 6
Overread into Lead-In and Lead-Out : No
Fill up missing offset samples with silence : Yes
Delete leading and trailing silent blocks : No
Null samples used in CRC calculations : Yes
Used interface : Native Win32 interface for Win NT & 2000
Gap handling : Appended to previous track
Used output format : User Defined Encoder
Selected bitrate : 1024 kBit/s
Quality : High
Add ID3 tag : No
Command line compressor : C:\Program Files\FLAC\flac.exe
Additional command line options : -8 -V -T "ARTIST=%artist%" -T "TITLE=%title%" -T "ALBUM=%albumtitle%" -T "DATE=%year%" -T "TRACKNUMBER=%tracknr%" -T "GENRE=%genre%" -T "PERFORMER=%albuminterpret%" -T "COMPOSER=%composer%" %haslyrics%--tag-from-file=LYRICS="%lyricsfile%"%haslyrics% -T "ALBUMARTIST=%albumartist%" -T "DISCNUMBER=%cdnumber%" -T "TOTALDISCS=%totalcds%" -T "TOTALTRACKS=%numtracks%" -T "COMMENT=%comment%" %source% -o %dest%
TOC of the extracted CD
Track | Start | Length | Start sector | End sector
---------------------------------------------------------
1 | 0:00.00 | 4:31.42 | 0 | 20366
2 | 4:31.42 | 4:15.43 | 20367 | 39534
3 | 8:47.10 | 3:50.43 | 39535 | 56827
4 | 12:37.53 | 5:02.11 | 56828 | 79488
5 | 17:39.64 | 4:53.27 | 79489 | 101490
6 | 22:33.16 | 5:39.57 | 101491 | 126972
7 | 28:12.73 | 4:31.00 | 126973 | 147297
8 | 32:43.73 | 4:24.03 | 147298 | 167100
9 | 37:08.01 | 4:02.27 | 167101 | 185277
Track 1
Filename H:\0\..................00\post\Con Funk Shun - Loveshine (1978) [2014 Japan]\01 - So Easy.wav
Pre-gap length 0:00:02.00
Peak level 99.9 %
Extraction speed 2.9 X
Track quality 99.9 %
Test CRC 2090D897
Copy CRC 2090D897
Cannot be verified as accurate (confidence 3) [16FBED23], AccurateRip returned [11E2C9B4] (AR v2)
Copy OK
Track 2
Filename H:\0\..................00\post\Con Funk Shun - Loveshine (1978) [2014 Japan]\02 - Magic Woman.wav
Peak level 99.9 %
Extraction speed 3.9 X
Track quality 100.0 %
Test CRC 0ABC2FAE
Copy CRC 0ABC2FAE
Cannot be verified as accurate (confidence 3) [122AE1F6], AccurateRip returned [F570EDC5] (AR v2)
Copy OK
Track 3
Filename H:\0\..................00\post\Con Funk Shun - Loveshine (1978) [2014 Japan]\03 - Shake And Dance With Me.wav
Peak level 99.9 %
Extraction speed 4.1 X
Track quality 100.0 %
Test CRC FF233847
Copy CRC FF233847
Cannot be verified as accurate (confidence 3) [22A0B4D7], AccurateRip returned [F73F62AD] (AR v2)
Copy OK
Track 4
Filename H:\0\..................00\post\Con Funk Shun - Loveshine (1978) [2014 Japan]\04 - Make It Last.wav
Peak level 99.9 %
Extraction speed 4.6 X
Track quality 100.0 %
Test CRC 8B9993E0
Copy CRC 8B9993E0
Cannot be verified as accurate (confidence 3) [E3F9AB5D], AccurateRip returned [7190659C] (AR v2)
Copy OK
Track 5
Filename H:\0\..................00\post\Con Funk Shun - Loveshine (1978) [2014 Japan]\05 - Loveshine.wav
Peak level 99.9 %
Extraction speed 4.9 X
Track quality 100.0 %
Test CRC 1221FC1D
Copy CRC 1221FC1D
Cannot be verified as accurate (confidence 3) [553FBE2E], AccurateRip returned [1603B776] (AR v2)
Copy OK
Track 6
Filename H:\0\..................00\post\Con Funk Shun - Loveshine (1978) [2014 Japan]\06 - When The Feeling's Right.wav
Pre-gap length 0:00:05.42
Peak level 99.9 %
Extraction speed 5.4 X
Track quality 100.0 %
Test CRC DDFFBEA1
Copy CRC DDFFBEA1
Cannot be verified as accurate (confidence 3) [6FE03983], AccurateRip returned [716BA322] (AR v2)
Copy OK
Track 7
Filename H:\0\..................00\post\Con Funk Shun - Loveshine (1978) [2014 Japan]\07 - I Think I Found The Answer.wav
Peak level 99.9 %
Extraction speed 5.6 X
Track quality 100.0 %
Test CRC 13029784
Copy CRC 13029784
Cannot be verified as accurate (confidence 3) [AAE9D38F], AccurateRip returned [BDF5922F] (AR v2)
Copy OK
Track 8
Filename H:\0\..................00\post\Con Funk Shun - Loveshine (1978) [2014 Japan]\08 - Wanna Be There.wav
Peak level 99.9 %
Extraction speed 5.9 X
Track quality 100.0 %
Test CRC 8BE4659A
Copy CRC 8BE4659A
Cannot be verified as accurate (confidence 3) [5C950B3F], AccurateRip returned [A9AA96CD] (AR v2)
Copy OK
Track 9
Filename H:\0\..................00\post\Con Funk Shun - Loveshine (1978) [2014 Japan]\09 - Can't Go Away.wav
Peak level 99.9 %
Extraction speed 4.8 X
Track quality 99.9 %
Test CRC 6F80FE38
Copy CRC 6F80FE38
Cannot be verified as accurate (confidence 3) [957C183A], AccurateRip returned [BE59E2E0] (AR v2)
Copy OK
No tracks could be verified as accurate
You may have a different pressing from the one(s) in the database
No errors occurred
End of status report
==== Log checksum 8C51DBE13671CB4487AC5299C5A031394D56969C134DCE8D7AF711D435D8329A ====
 
Содержание индексной карты (.CUE)
REM GENRE Funk
REM DATE 2014
REM DISCID 7909A609
REM COMMENT "ExactAudioCopy v1.0b3"
PERFORMER "Con Funk Shun"
TITLE "Loveshine"
FILE "01 - So Easy.wav" WAVE
TRACK 01 AUDIO
TITLE "So Easy"
PERFORMER "Con Funk Shun"
INDEX 01 00:00:00
FILE "02 - Magic Woman.wav" WAVE
TRACK 02 AUDIO
TITLE "Magic Woman"
PERFORMER "Con Funk Shun"
INDEX 01 00:00:00
FILE "03 - Shake And Dance With Me.wav" WAVE
TRACK 03 AUDIO
TITLE "Shake And Dance With Me"
PERFORMER "Con Funk Shun"
INDEX 01 00:00:00
FILE "04 - Make It Last.wav" WAVE
TRACK 04 AUDIO
TITLE "Make It Last"
PERFORMER "Con Funk Shun"
INDEX 01 00:00:00
FILE "05 - Loveshine.wav" WAVE
TRACK 05 AUDIO
TITLE "Loveshine"
PERFORMER "Con Funk Shun"
INDEX 01 00:00:00
TRACK 06 AUDIO
TITLE "When The Feeling's Right"
PERFORMER "Con Funk Shun"
INDEX 00 04:47:60
FILE "06 - When The Feeling's Right.wav" WAVE
INDEX 01 00:00:00
FILE "07 - I Think I Found The Answer.wav" WAVE
TRACK 07 AUDIO
TITLE "I Think I Found The Answer"
PERFORMER "Con Funk Shun"
INDEX 01 00:00:00
FILE "08 - Wanna Be There.wav" WAVE
TRACK 08 AUDIO
TITLE "Wanna Be There"
PERFORMER "Con Funk Shun"
INDEX 01 00:00:00
FILE "09 - Can't Go Away.wav" WAVE
TRACK 09 AUDIO
TITLE "Can't Go Away"
PERFORMER "Con Funk Shun"
INDEX 01 00:00:00
 
Состав
Credits:
Alto Saxophone, Tenor Saxophone, Flute, Vocals – Paul Harrell
Arranged By [Strings] – David Crawford
Art Direction – John Valardi
Bass Guitar, Vocals – Cedric Martin
Bongos, Congas, Shekere – Sheila Escovedo*
Concertmaster – Nathan Rubin
Coordinator [Project Coordinator] – Linda Lou McCall
Design, Illustration [Photo Illustrations] – Theodore Kessel/Foresight Productions
Drums, Vocals – Louis McCall*
Electric Guitar, Sitar [Electric], Timbales, Vocals, Percussion – Michael Cooper
Engineer [Assistant] – Hill Swimmer, Steve Mantoani
Engineer [Recording, Mixing] – Don Cody
Engineer [Technical] – Seth Dworken
Mastered By – Frank DeLuna
Other [Production Assistant] – Cheryl Ward
Photography By [Group] – Greg Heisler*
Piano, Clavinet, Synthesizer, Organ, Vocals – Danny Thomas
Producer – Skip Scarborough
Trombone, Trumpet [Bass], Piano, Synthesizer, Acoustic Guitar, Vocals – Felton C. Pilate II
Trumpet, Flugelhorn, Vocals – Karl Fuller
Приватный:
Нет (DHT включён)
Размер:
358.72 Мб (376,147,497 байт) » файлов: 25
Участники:
0 раздают, 0 качают (0 участников всего)
Внешние участники:
1 раздают, 0 качают (1 участников всего) [ Обновить ]
No seeders - write a personal message to user M0p94ok. Нет сидеров - пишите личное сообщение пользователю M0p94ok.
06:03
76
Нет комментариев. Ваш будет первым!