Поиск

(Soul, Funk, Jazz, R&B) [CD] Bluey (Jean-Paul 'Bluey' Maunick, guitarist of "Incognito") - Life Between The Notes - 2015, FLAC (image+.cue), lossless

(Soul, Funk, Jazz, R&B) [CD] Bluey (Jean-Paul 'Bluey' Maunick, guitarist of "Incognito") - Life Between The Notes - 2015, FLAC (image+.cue), lossless
Треклист:
Bluey / Life Between The Notes

Жанр: Soul, Funk, Jazz, R&B
Носитель: CD
Год издания: 2015
Издатель (лейбл): Shanachie Records
Номер по каталогу: 5430
Страна исполнителя (группы): UK
Аудиокодек: FLAC (*.flac)
Тип рипа: image+.cue
Битрейт аудио: lossless
Продолжительность: 0:57:58
Источник (релизер): Свой рип
Наличие сканов в содержимом раздачи: нет
Треклист:
01 - Dance To My Drums
02 - Life Between The Notes
03 - Hold On
04 - Saints And Sinners
05 - Trippin' On This Feelin'
06 - I've Got A Weakness For Your Love
07 - Tomorrow Never Lies
08 - Columbus Avenue
09 - Caught Up In The Grey
10 - Been There Before
11 - More Than Getting By
12 - The Poetry Of Life
13 - Sunships On The Shores Of Mars
 
Лог создания рипа
Exact Audio Copy V1.0 beta 3 from 29. August 2011
Отчёт EAC об извлечении, выполненном 12. мая 2015, 20:04
Bluey / Life Between The Notes
Дисковод: hp DVD-RAM UJ8D1 Adapter: 0 ID: 0
Режим чтения : Достоверность
Использование точного потока : Да
Отключение кэша аудио : Да
Использование указателей C2 : Нет
Коррекция смещения при чтении : 6
Способность читать области Lead-in и Lead-out : Нет
Заполнение пропущенных сэмплов тишиной : Да
Удаление блоков с тишиной в начале и конце : Нет
При вычислениях CRC использовались нулевые сэмплы : Да
Интерфейс : Встроенный Win32-интерфейс для Win NT/2000
Выходной формат : Пользовательский кодировщик
Выбранный битрейт : 128 kBit/s
Качество : Высокий
Добавление ID3-тега : Нет
Утилита сжатия : C:\Program Files (x86)\Exact Audio Copy\Flac\flac.exe
Дополнительные параметры : -V -8 -T "Date=%year%" -T "Genre=%genre%" %source%
TOC извлечённого CD
Трек | Старт | Длительность | Начальный сектор | Конечный сектор
---------------------------------------------------------------------
1 | 0:00.00 | 1:35.42 | 0 | 7166
2 | 1:35.42 | 5:14.22 | 7167 | 30738
3 | 6:49.64 | 5:25.72 | 30739 | 55185
4 | 12:15.61 | 4:51.57 | 55186 | 77067
5 | 17:07.43 | 4:27.12 | 77068 | 97104
6 | 21:34.55 | 4:36.18 | 97105 | 117822
7 | 26:10.73 | 4:51.48 | 117823 | 139695
8 | 31:02.46 | 4:58.51 | 139696 | 162096
9 | 36:01.22 | 4:00.45 | 162097 | 180141
10 | 40:01.67 | 4:08.16 | 180142 | 198757
11 | 44:10.08 | 3:09.22 | 198758 | 212954
12 | 47:19.30 | 4:50.09 | 212955 | 234713
13 | 52:09.39 | 5:48.51 | 234714 | 260864
Характеристики диапазона извлечения и сообщения об ошибках
Выбранный диапазон
Имя файла C:\Desktop\Bluey - Life Between The Notes (2015)\Bluey - Life Between The Notes.wav
Пиковый уровень 98.8 %
Скорость извлечения 4.8 X
Качество диапазона 99.9 %
CRC теста FD8CCE7B
CRC копии FD8CCE7B
Копирование... OK
Ошибок не произошло
Конец отчёта
---- CUETools DB Plugin V2.1.3
[CTDB TOCID: kEX9WlCCGwCn2E28hjVPm.Lew_w-] disk not present in database, Submit result: kEX9WlCCGwCn2E28hjVPm.Lew_w- has been uploaded
==== Контрольная сумма отчёта 089C1B0301B1B83CC0E9A612DEC09C69C1C03A0AA061AF2928FF6CF603D2E289 ====
 
Состав
Bluey - Arranger, Bass, Finger Picking, Guitar, Keyboards, Primary Artist, Producer, Vocals
Richard Bull - Arranger, Bass, Composer, Drums, Engineer, Guitar, Guitar (Acoustic), Instrumentation, Mastering, Mixing, Percussion, Producer
João Caetano - Percussion
Matthew Cooper - Arranger, Composer, Engineer, Instrumentation, Keyboards, Piano, Producer
Dan Goldman - Arranger, Composer, Engineer, Instrumentation, Mixing, Producer
Graham Harvey - Arranger, Composer, Piano, Producer
Mo Hausler - Engineer, Guitar Engineer, Mixing
Francis Hylton - Bass
Francesco Mendolia - Drums
Robin Mullarkey - Bass
Dominic "Ski" Oakenfull - Composer, Arranger, Engineer, Instrumentation, Mixing, Producer
Francisco Salles - Composer, Guitar
Приватный:
Нет (DHT включён)
Размер:
377.07 Мб (395,382,087 байт) » файлов: 4
Участники:
0 раздают, 0 качают (0 участников всего)
Внешние участники:
2 раздают, 1 качают (3 участников всего) [ Обновить ]
Есть вопросы - пишите личное сообщение пользователю M0p94ok.
06:02
57
Нет комментариев. Ваш будет первым!