Поиск

(Funk, Soul) [CD] Norman Connors - Passion - 1988 (2011 Japan Edition), FLAC (tracks+.cue), lossless

(Funk, Soul) [CD] Norman Connors - Passion - 1988 (2011 Japan Edition), FLAC (tracks+.cue), lossless
Треклист:
Norman Connors - Passion
Жанр: Funk, Soul
Носитель: CD
Страна-производитель диска (релиза): Япония
Год издания: 1988 (2011)
Издатель (лейбл): Capitol Records (Jazz 999 Forecast)
Номер по каталогу: TOCJ-50255
Страна исполнителя (группы): США
Аудиокодек: FLAC (*.flac)
Тип рипа: tracks+.cue
Битрейт аудио: lossless
Продолжительность: 59:37
Источник (релизер): coron (what)
Наличие сканов в содержимом раздачи: нет
Треклист:
01. I Am Your Melody (6:06)
02. You're My One and Only Love (4:40)
03. Heaven in Your Eyes (4:34)
04. Private Stock (4:42)
05. Passion (5:17)
06. Lovin' You (5:09)
07. Shabba (3:48)
08. That's the Way of the World (7:01)
09. Welcome to My Life (6:59)
10. Obsession (6:32)
11. Samba for Maria (4:49)
 
Лог создания рипа
Exact Audio Copy V1.0 beta 3 from 29. August 2011
EAC extraction logfile from 27. April 2015, 1:06
Norman Connors / Passion (2011 Remastered)
Used drive : PIONEER BD-RW BDR-XD05 Adapter: 2 ID: 0
Read mode : Secure
Utilize accurate stream : Yes
Defeat audio cache : Yes
Make use of C2 pointers : No
Read offset correction : 667
Overread into Lead-In and Lead-Out : No
Fill up missing offset samples with silence : Yes
Delete leading and trailing silent blocks : No
Null samples used in CRC calculations : Yes
Used interface : Native Win32 interface for Win NT & 2000
Gap handling : Appended to previous track
Used output format : User Defined Encoder
Selected bitrate : 1024 kBit/s
Quality : High
Add ID3 tag : No
Command line compressor : C:\Program Files (x86)\Exact Audio Copy\Flac\flac.exe
Additional command line options : -8 -V -T "ARTIST=%artist%" -T "TITLE=%title%" -T "ALBUM=%albumtitle%" -T "DATE=%year%" -T "TRACKNUMBER=%tracknr%" -T "GENRE=%genre%" -T "PERFORMER=%albuminterpret%" -T "COMPOSER=%composer%" %haslyrics%--tag-from-file=LYRICS="%lyricsfile%"%haslyrics% -T "ALBUMARTIST=%albumartist%" -T "DISCNUMBER=%cdnumber%" -T "TOTALDISCS=%totalcds%" -T "TOTALTRACKS=%numtracks%" -T "COMMENT=%comment%" %source% -o %dest%
TOC of the extracted CD
Track | Start | Length | Start sector | End sector
---------------------------------------------------------
1 | 0:00.00 | 6:05.72 | 0 | 27446
2 | 6:05.72 | 4:40.25 | 27447 | 48471
3 | 10:46.22 | 4:33.46 | 48472 | 68992
4 | 15:19.68 | 4:42.12 | 68993 | 90154
5 | 20:02.05 | 5:17.31 | 90155 | 113960
6 | 25:19.36 | 5:08.62 | 113961 | 137122
7 | 30:28.23 | 3:47.66 | 137123 | 154213
8 | 34:16.14 | 7:00.66 | 154214 | 185779
9 | 41:17.05 | 6:58.47 | 185780 | 217176
10 | 48:15.52 | 6:32.08 | 217177 | 246584
11 | 54:47.60 | 4:49.25 | 246585 | 268284
Track 1
Filename C:\EACRips\01 I Am Your Melody.wav
Pre-gap length 0:00:02.00
Peak level 97.8 %
Extraction speed 3.0 X
Track quality 100.0 %
Test CRC 6F145D39
Copy CRC 6F145D39
Accurately ripped (confidence 1) [B77E6EB2] (AR v2)
Copy OK
Track 2
Filename C:\EACRips\02 Your're My One And Only Love.wav
Peak level 97.8 %
Extraction speed 3.3 X
Track quality 100.0 %
Test CRC 4A20782A
Copy CRC 4A20782A
Accurately ripped (confidence 1) [19A77AB2] (AR v2)
Copy OK
Track 3
Filename C:\EACRips\03 Heaven In Your Eyes.wav
Peak level 97.7 %
Extraction speed 3.6 X
Track quality 100.0 %
Test CRC 1740C490
Copy CRC 1740C490
Accurately ripped (confidence 1) [FEE3851C] (AR v2)
Copy OK
Track 4
Filename C:\EACRips\04 Private Stock.wav
Peak level 97.7 %
Extraction speed 3.5 X
Track quality 99.9 %
Test CRC BF6732C8
Copy CRC BF6732C8
Accurately ripped (confidence 1) [CEBAC722] (AR v2)
Copy OK
Track 5
Filename C:\EACRips\05 Passion.wav
Peak level 97.8 %
Extraction speed 3.8 X
Track quality 99.9 %
Test CRC 5F669DA6
Copy CRC 5F669DA6
Accurately ripped (confidence 1) [98AABF01] (AR v2)
Copy OK
Track 6
Filename C:\EACRips\06 Lovin' You.wav
Pre-gap length 0:00:01.41
Peak level 97.8 %
Extraction speed 4.4 X
Track quality 100.0 %
Test CRC 0BF579BD
Copy CRC 0BF579BD
Accurately ripped (confidence 1) [9FDD9939] (AR v2)
Copy OK
Track 7
Filename C:\EACRips\07 Shabba.wav
Peak level 97.8 %
Extraction speed 4.4 X
Track quality 100.0 %
Test CRC 60BB5E5D
Copy CRC 60BB5E5D
Accurately ripped (confidence 1) [B0C0AE65] (AR v2)
Copy OK
Track 8
Filename C:\EACRips\08 That's The Way Of The World.wav
Pre-gap length 0:00:01.16
Peak level 97.8 %
Extraction speed 5.0 X
Track quality 100.0 %
Test CRC 6850742D
Copy CRC 6850742D
Accurately ripped (confidence 1) [9F6665FD] (AR v2)
Copy OK
Track 9
Filename C:\EACRips\09 Welcome To My Life.wav
Pre-gap length 0:00:01.09
Peak level 97.9 %
Extraction speed 4.8 X
Track quality 99.9 %
Test CRC 2923DB27
Copy CRC 2923DB27
Accurately ripped (confidence 1) [046DF7E8] (AR v2)
Copy OK
Track 10
Filename C:\EACRips\10 Obsession.wav
Pre-gap length 0:00:00.58
Peak level 97.7 %
Extraction speed 5.1 X
Track quality 99.9 %
Test CRC 71404F62
Copy CRC 71404F62
Accurately ripped (confidence 1) [C99E0945] (AR v2)
Copy OK
Track 11
Filename C:\EACRips\11 Samba For Maria.wav
Pre-gap length 0:00:00.46
Peak level 97.7 %
Extraction speed 5.5 X
Track quality 100.0 %
Test CRC 2A5E022C
Copy CRC 2A5E022C
Accurately ripped (confidence 1) [8F4A37CA] (AR v2)
Copy OK
All tracks accurately ripped
No errors occurred
End of status report
---- CUETools DB Plugin V2.1.3
[CTDB TOCID: tdbxzNIWro6Ud15_ybj6WTLT1yg-] disk not present in database, Submit result: tdbxzNIWro6Ud15_ybj6WTLT1yg- has been uploaded
==== Log checksum 11D8AF20D4A4F0283DD7C051C6AEB894DB1CD129A6F7B665688394F2938D3709 ====
 
Содержание индексной карты (.CUE)
REM GENRE Jazz
REM DATE 1988
REM DISCID A10DF90B
REM COMMENT "ExactAudioCopy v1.0b3"
PERFORMER "Norman Connors"
TITLE "Passion"
FILE "01 - I Am Your Melody.wav" WAVE
TRACK 01 AUDIO
TITLE "I Am Your Melody"
PERFORMER "Norman Connors"
ISRC USCA20803724
INDEX 01 00:00:00
FILE "02 - You're My One and Only Love.wav" WAVE
TRACK 02 AUDIO
TITLE "You're My One and Only Love"
PERFORMER "Norman Connors"
ISRC USCA20807095
INDEX 01 00:00:00
FILE "03 - Heaven in Your Eyes.wav" WAVE
TRACK 03 AUDIO
TITLE "Heaven in Your Eyes"
PERFORMER "Norman Connors"
ISRC USCA20807088
INDEX 01 00:00:00
FILE "04 - Private Stock.wav" WAVE
TRACK 04 AUDIO
TITLE "Private Stock"
PERFORMER "Norman Connors"
ISRC USCA20807089
INDEX 01 00:00:00
FILE "05 - Passion.wav" WAVE
TRACK 05 AUDIO
TITLE "Passion"
PERFORMER "Norman Connors"
ISRC USCA20807090
INDEX 01 00:00:00
TRACK 06 AUDIO
TITLE "Lovin' You"
PERFORMER "Norman Connors"
ISRC USCA20807091
INDEX 00 05:16:00
FILE "06 - Lovin' You.wav" WAVE
INDEX 01 00:00:00
FILE "07 - Shabba.wav" WAVE
TRACK 07 AUDIO
TITLE "Shabba"
PERFORMER "Norman Connors"
ISRC USCA20807092
INDEX 01 00:00:00
TRACK 08 AUDIO
TITLE "That's the Way of the World"
PERFORMER "Norman Connors"
ISRC USCA20807093
INDEX 00 03:46:54
FILE "08 - That's the Way of the World.wav" WAVE
INDEX 01 00:00:00
TRACK 09 AUDIO
TITLE "Welcome to My Life"
PERFORMER "Norman Connors"
ISRC USCA20807094
INDEX 00 06:59:59
FILE "09 - Welcome to My Life.wav" WAVE
INDEX 01 00:00:00
TRACK 10 AUDIO
TITLE "Obsession"
PERFORMER "Norman Connors"
ISRC USCA21102463
INDEX 00 06:58:03
FILE "10 - Obsession.wav" WAVE
INDEX 01 00:00:00
TRACK 11 AUDIO
TITLE "Samba for Maria"
PERFORMER "Norman Connors"
ISRC USCA20802211
INDEX 00 06:31:48
FILE "11 - Samba for Maria.wav" WAVE
INDEX 01 00:00:00
 
Отчет CUETools
[CUETools log; Date: 11.05.2015 1:15:05; Version: 2.1.5]
[CTDB TOCID: tdbxzNIWro6Ud15_ybj6WTLT1yg-] found.
Track | CTDB Status
1 | (1/1) Accurately ripped
2 | (1/1) Accurately ripped
3 | (1/1) Accurately ripped
4 | (1/1) Accurately ripped
5 | (1/1) Accurately ripped
6 | (1/1) Accurately ripped
7 | (1/1) Accurately ripped
8 | (1/1) Accurately ripped
9 | (1/1) Accurately ripped
10 | (1/1) Accurately ripped
11 | (1/1) Accurately ripped
[AccurateRip ID: 0017c6b0-00cf370a-a10df90b] found.
Track [ CRC | V2 ] Status
01 [f198fde1|b77e6eb2] (0+1/1) Accurately ripped
02 [508fc912|19a77ab2] (0+1/1) Accurately ripped
03 [65b876a4|fee3851c] (0+1/1) Accurately ripped
04 [f016e4b2|cebac722] (0+1/1) Accurately ripped
05 [2269064b|98aabf01] (0+1/1) Accurately ripped
06 [53780277|9fdd9939] (0+1/1) Accurately ripped
07 [c9bd1114|b0c0ae65] (0+1/1) Accurately ripped
08 [5c7a23d5|9f6665fd] (0+1/1) Accurately ripped
09 [3eb6431d|046df7e8] (0+1/1) Accurately ripped
10 [8a883b26|c99e0945] (0+1/1) Accurately ripped
11 [ad7db446|8f4a37ca] (0+1/1) Accurately ripped
Track Peak [ CRC32 ] [W/O NULL] [ LOG ]
-- 97,9 [00F944DE] [DA8AFC9C]
01 97,8 [6F145D39] [5A37654B] CRC32
02 97,8 [4A20782A] [35F714D1] CRC32
03 97,7 [1740C490] [C598ECF2] CRC32
04 97,7 [BF6732C8] [19FCA130] CRC32
05 97,8 [5F669DA6] [23E413E5] CRC32
06 97,8 [0BF579BD] [AE46929B] CRC32
07 97,8 [60BB5E5D] [5D3B605F] CRC32
08 97,8 [6850742D] [C0B5C4D2] CRC32
09 97,9 [2923DB27] [27EB9D6A] CRC32
10 97,7 [71404F62] [41EF0D40] CRC32
11 97,7 [2A5E022C] [C4954E5F] CRC32
 
Review by Jason Elias
One of the innovators of jazz-R&B, Connors set the standard with 1976's You Are My Starship. Passion was his first release in over six years and features the singing talents of Gabrielle Goodman and Spencer Harrison. In the six years between albums, the jazz-R&B sound had changed. Big orchestras and live, esteemed players were replaced with more minimal, technologically based surroundings. On this effort, Connors strikes a successful middle ground. The album's first single is one of Connors' finest songs. The dramatic "I'm Your Melody" has vocals from Harrison that are filled with authority as he comes off like a male Phyllis Hyman. The melodically challenging "You're My One and Only Love" has a sweet vocal from Goodman and has Connors updating his sound with drum machines and other synths. On Passion, Connors does a few covers. Both Earth, Wind & Fire's "That's the Way of the World" and Minnie Riperton's "Lovin' You" have him taking a look back for better or worse and are suitably updated to the style of late-'80s commercial jazz. On Passion, Connors no doubt had a better time with the originals. The duets "Welcome to My Life" and "Heaven in Your Eyes" both feature Goodman and Harrison and quickly became new Connors standards. Although he was surprisingly good at it, Connors ditched the hardware for Passion's last track. The rousing "Samba for Maria" has an excellent and emotional solo from Freddie Hubbard as Connors gets to display his percussion skills in a stripped-down arrangement. Passion marks a successful return to the music scene for Connors and has a few of his most enjoyable tracks.
Приватный:
Нет (DHT включён)
Размер:
397.82 Мб (417,149,254 байт) » файлов: 18
Участники:
1 раздают, 0 качают (1 участников всего)
Внешние участники:
3 раздают, 1 качают (4 участников всего) [ Обновить ]
Есть вопросы - пишите личное сообщение пользователю M0p94ok.
06:01
82
Нет комментариев. Ваш будет первым!