Поиск

(funk, soul) [CD] Average White Band - Shine - 1980, {1995 Japan Issue}, FLAC (tracks+.cue), lossless

(funk, soul) [CD] Average White Band - Shine - 1980, {1995 Japan Issue}, FLAC (tracks+.cue), lossless
Треклист:
Average White Band - Shine (1980)
Жанр: funk, soul
Носитель: CD
Страна-производитель диска (релиза): Japan
Год издания: 1995
Издатель (лейбл): Victor
Номер по каталогу: VICP-2113
Страна исполнителя (группы): USA
Аудиокодек: FLAC (*.flac)
Тип рипа: tracks+.cue
Битрейт аудио: lossless
Продолжительность: 00:38:36
Источник (релизер): рип мой. диск тоже мой.
Наличие сканов в содержимом раздачи: нет, фото для подтверждения в папке Artwork
Треклист:
01. Our Time Has Come (3:37)
02. For You, For Love (3:53)
03. Let's Go Round Again (4:56)
04. Whatcha' Gonna Do For Me (4:10)
05. Into The Night (4:00)
06. Catch Me (Before I Have To Testify) (5:00)
07. Help Is On The Way (4:22)
08. if Love Only Lasts For One Night (4:41)
09. Shine (3:56)
 
Лог создания рипа
Exact Audio Copy V1.0 beta 1 from 15. November 2010
EAC extraction logfile from 11. March 2014, 1:09
Average White Band / Shine
Used drive : Optiarc DVD RW AD-7200A Adapter: 0 ID: 0
Read mode : Secure
Utilize accurate stream : Yes
Defeat audio cache : Yes
Make use of C2 pointers : No
Read offset correction : 48
Overread into Lead-In and Lead-Out : No
Fill up missing offset samples with silence : Yes
Delete leading and trailing silent blocks : No
Null samples used in CRC calculations : Yes
Used interface : Native Win32 interface for Win NT & 2000
Gap handling : Appended to previous track
Used output format : User Defined Encoder
Selected bitrate : 768 kBit/s
Quality : High
Add ID3 tag : No
Command line compressor : C:\Program Files\Exact Audio Copy\Flac\flac.exe
Additional command line options : -8 -V -T "ARTIST=%a" -T "TITLE=%t" -T "ALBUM=%g" -T "DATE=%y" -T "TRACKNUMBER=%n" -T "TOTALTRACKS=%x" -T "GENRE=%m" -T "ALBUMARTIST=%v" -T "ALBUM ARTIST=%v" -T "COMMENT=EAC Secure Mode, Test & Copy, AccurateRip, FLAC -8" %s
TOC of the extracted CD
Track | Start | Length | Start sector | End sector
---------------------------------------------------------
1 | 0:00.37 | 3:37.35 | 37 | 16346
2 | 3:37.72 | 3:53.28 | 16347 | 33849
3 | 7:31.25 | 4:55.50 | 33850 | 56024
4 | 12:27.00 | 4:10.05 | 56025 | 74779
5 | 16:37.05 | 4:00.12 | 74780 | 92791
6 | 20:37.17 | 5:00.18 | 92792 | 115309
7 | 25:37.35 | 4:22.12 | 115310 | 134971
8 | 29:59.47 | 4:40.63 | 134972 | 156034
9 | 34:40.35 | 3:55.42 | 156035 | 173701
Track 1
Filename D:\Average White Band - Shine (1980) [FLAC]\01 - Our Time Has Come.wav
Pre-gap length 0:00:02.37
Peak level 99.3 %
Extraction speed 1.9 X
Track quality 99.9 %
Test CRC 64CB9625
Copy CRC 64CB9625
Track not present in AccurateRip database
Copy OK
Track 2
Filename D:\Average White Band - Shine (1980) [FLAC]\02 - For You, For Love.wav
Pre-gap length 0:00:00.61
Peak level 99.1 %
Extraction speed 2.5 X
Track quality 100.0 %
Test CRC A810F73F
Copy CRC A810F73F
Track not present in AccurateRip database
Copy OK
Track 3
Filename D:\Average White Band - Shine (1980) [FLAC]\03 - Let's Go Round Again.wav
Pre-gap length 0:00:00.74
Peak level 99.3 %
Extraction speed 2.8 X
Track quality 100.0 %
Test CRC EC6966C9
Copy CRC EC6966C9
Track not present in AccurateRip database
Copy OK
Track 4
Filename D:\Average White Band - Shine (1980) [FLAC]\04 - Whatcha' Gonna Do For Me.wav
Peak level 99.2 %
Extraction speed 2.7 X
Track quality 99.9 %
Test CRC 351800D8
Copy CRC 351800D8
Track not present in AccurateRip database
Copy OK
Track 5
Filename D:\Average White Band - Shine (1980) [FLAC]\05 - Into The Night.wav
Pre-gap length 0:00:00.24
Peak level 100.0 %
Extraction speed 3.2 X
Track quality 100.0 %
Test CRC 12F27009
Copy CRC 12F27009
Track not present in AccurateRip database
Copy OK
Track 6
Filename D:\Average White Band - Shine (1980) [FLAC]\06 - Catch Me (Before I Have To Testify).wav
Pre-gap length 0:00:02.51
Peak level 99.3 %
Extraction speed 3.5 X
Track quality 100.0 %
Test CRC E3D05EA2
Copy CRC E3D05EA2
Track not present in AccurateRip database
Copy OK
Track 7
Filename D:\Average White Band - Shine (1980) [FLAC]\07 - Help Is On The Way.wav
Pre-gap length 0:00:01.62
Peak level 99.3 %
Extraction speed 3.7 X
Track quality 100.0 %
Test CRC 2951CA39
Copy CRC 2951CA39
Track not present in AccurateRip database
Copy OK
Track 8
Filename D:\Average White Band - Shine (1980) [FLAC]\08 - if Love Only Lasts For One Night.wav
Pre-gap length 0:00:02.59
Peak level 99.3 %
Extraction speed 3.8 X
Track quality 100.0 %
Test CRC D3A83975
Copy CRC D3A83975
Track not present in AccurateRip database
Copy OK
Track 9
Filename D:\Average White Band - Shine (1980) [FLAC]\09 - Shine.wav
Pre-gap length 0:00:01.42
Peak level 99.3 %
Extraction speed 4.0 X
Track quality 100.0 %
Test CRC 0BEC7EFE
Copy CRC 0BEC7EFE
Track not present in AccurateRip database
Copy OK
None of the tracks are present in the AccurateRip database
No errors occurred
End of status report
==== Log checksum E72CD3357AC5BBE191A68C982C8ABB132069F8E52EE36488413D7996B2FDDB34 ====
 
Содержание индексной карты (.CUE)
REM GENRE Dance
REM DATE 1980
REM DISCID 80090C09
REM COMMENT "ExactAudioCopy v1.0b1"
PERFORMER "Average White Band"
TITLE "Shine"
FILE "01 - Our Time Has Come.wav" WAVE
TRACK 01 AUDIO
TITLE "Our Time Has Come"
PERFORMER "Average White Band"
PREGAP 00:00:37
INDEX 01 00:00:00
TRACK 02 AUDIO
TITLE "For You, For Love"
PERFORMER "Average White Band"
INDEX 00 03:36:49
FILE "02 - For You, For Love.wav" WAVE
INDEX 01 00:00:00
TRACK 03 AUDIO
TITLE "Let's Go Round Again"
PERFORMER "Average White Band"
INDEX 00 03:52:29
FILE "03 - Let's Go Round Again.wav" WAVE
INDEX 01 00:00:00
FILE "04 - Whatcha' Gonna Do For Me.wav" WAVE
TRACK 04 AUDIO
TITLE "Whatcha' Gonna Do For Me"
PERFORMER "Average White Band"
INDEX 01 00:00:00
TRACK 05 AUDIO
TITLE "Into The Night"
PERFORMER "Average White Band"
INDEX 00 04:09:56
FILE "05 - Into The Night.wav" WAVE
INDEX 01 00:00:00
TRACK 06 AUDIO
TITLE "Catch Me (Before I Have To Testify)"
PERFORMER "Average White Band"
INDEX 00 03:57:36
FILE "06 - Catch Me (Before I Have To Testify).wav" WAVE
INDEX 01 00:00:00
TRACK 07 AUDIO
TITLE "Help Is On The Way"
PERFORMER "Average White Band"
INDEX 00 04:58:31
FILE "07 - Help Is On The Way.wav" WAVE
INDEX 01 00:00:00
TRACK 08 AUDIO
TITLE "if Love Only Lasts For One Night"
PERFORMER "Average White Band"
INDEX 00 04:19:28
FILE "08 - if Love Only Lasts For One Night.wav" WAVE
INDEX 01 00:00:00
TRACK 09 AUDIO
TITLE "Shine"
PERFORMER "Average White Band"
INDEX 00 04:39:21
FILE "09 - Shine.wav" WAVE
INDEX 01 00:00:00
Доп. информация: Японское издание середины 90-х. Может кому интересно.
Приватный:
Нет (DHT включён)
Размер:
245.87 Мб (257,816,946 байт) » файлов: 16
Участники:
0 раздают, 0 качают (0 участников всего)
Внешние участники:
2 раздают, 1 качают (3 участников всего) [ Обновить ]
Есть вопросы - пишите личное сообщение пользователю M0p94ok.
06:00
67
Нет комментариев. Ваш будет первым!