Поиск

(Funk, Soul, R&B) [CD] The O'Jays - So Full Of Love (Original.1978) - 1978, FLAC (image+.cue), lossless

(Funk, Soul, R&B) [CD] The O'Jays - So Full Of Love (Original.1978) - 1978, FLAC (image+.cue), lossless
Треклист:
The O'Jays / So Full Of Love (orig.1978)
Жанр: Funk, Soul, R&B
Носитель: CD
Страна-производитель диска (релиза): USA
Год издания: 1978
Издатель (лейбл): CBS Records
Номер по каталогу: ZK 35355 PIR
Аудиокодек: FLAC (*.flac)
Тип рипа: image+.cue
Битрейт аудио: lossless
Продолжительность: 0:35:25.45 h:m:s.f
Источник (релизер): pazanenok
Наличие сканов в содержимом раздачи: нет
Треклист:
01.Sing My Heart Out
02.Use Ta Be My Girl
03.Cry Together
04.This Time Baby
05.Brandy
06.Take Me to the Stars
07.Help (Somebody Please)
08.Strokety Stroke
 
Лог создания рипа
Exact Audio Copy V1.0 beta 6 from 9. April 2015
Отчёт EAC об извлечении, выполненном 6. мая 2015, 18:42
The O'Jays / So Full Of Love
Дисковод: PIONEER DVD-RW DVR-219L Adapter: 1 ID: 0
Режим чтения : Достоверность
Использование точного потока : Да
Отключение кэша аудио : Да
Использование указателей C2 : Нет
Коррекция смещения при чтении : 6
Способность читать области Lead-in и Lead-out : Нет
Заполнение пропущенных сэмплов тишиной : Да
Удаление блоков с тишиной в начале и конце : Нет
При вычислениях CRC использовались нулевые сэмплы : Да
Интерфейс : Встроенный Win32-интерфейс для Win NT/2000
Выходной формат : Пользовательский кодировщик
Выбранный битрейт : 768 kBit/s
Качество : Высокий
Добавление ID3-тега : Нет
Утилита сжатия : C:\Program Files\Exact Audio Copy\FLAC\FLAC.EXE
Дополнительные параметры : -6 -V -T "ARTIST=%artist%" -T "TITLE=%title%" -T "ALBUM=%albumtitle%" -T "DATE=%year%" -T "TRACKNUMBER=%tracknr%" -T "GENRE=%genre%" -T "COMMENT=%comment%" -T "BAND=%albuminterpret%" -T "ALBUMARTIST=%albuminterpret%" -T "COMPOSER=%composer%" %haslyrics%--tag-from-file=LYRICS="%lyricsfile%"%haslyrics% -T "DISCNUMBER=%cdnumber%" -T "TOTALDISCS=%totalcds%" -T "TOTALTRACKS=%numtracks%" %hascover%--picture="%coverfile%"%hascover% %source% -o %dest%
TOC извлечённого CD
Трек | Старт | Длительность | Начальный сектор | Конечный сектор
---------------------------------------------------------------------
1 | 0:00.00 | 4:16.12 | 0 | 19211
2 | 4:16.12 | 3:23.10 | 19212 | 34446
3 | 7:39.22 | 5:34.28 | 34447 | 59524
4 | 13:13.50 | 4:24.67 | 59525 | 79391
5 | 17:38.42 | 4:12.43 | 79392 | 98334
6 | 21:51.10 | 4:13.05 | 98335 | 117314
7 | 26:04.15 | 4:55.67 | 117315 | 139506
8 | 31:00.07 | 4:25.38 | 139507 | 159419
Характеристики диапазона извлечения и сообщения об ошибках
Выбранный диапазон
Имя файла E:\Раздачи\The O'Jays - So Full Of Love - 1978\The O'Jays - So Full Of Love.wav
Пиковый уровень 100.0 %
Скорость извлечения 6.6 X
Качество диапазона 100.0 %
CRC копии 515C2BBE
Копирование... OK
Ошибок не произошло
AccurateRip: сводка
Трек 1 отсутствует в базе данных
Трек 2 отсутствует в базе данных
Трек 3 отсутствует в базе данных
Трек 4 отсутствует в базе данных
Трек 5 отсутствует в базе данных
Трек 6 отсутствует в базе данных
Трек 7 отсутствует в базе данных
Трек 8 отсутствует в базе данных
Ни одного трека нет в базе AccurateRip
Конец отчёта
---- CUETools DB Plugin V2.1.6
[CTDB TOCID: hzaGHAheTULesvNYZreERG9NJzk-] disk not present in database
Submit result: hzaGHAheTULesvNYZreERG9NJzk- has been uploaded
Приватный:
Нет (DHT включён)
Размер:
210.81 Мб (221,049,664 байт) » файлов: 5
Участники:
0 раздают, 0 качают (0 участников всего)
Внешние участники:
2 раздают, 1 качают (3 участников всего) [ Обновить ]
Есть вопросы - пишите личное сообщение пользователю M0p94ok.
06:00
45
Нет комментариев. Ваш будет первым!