Поиск

(Funk, Soul, R&B) [CD] Gwen McCrae - Psychic Hot Line - 1996, FLAC (image+.cue), lossless

(Funk, Soul, R&B) [CD] Gwen McCrae - Psychic Hot Line - 1996, FLAC (image+.cue), lossless
Треклист:
Gwen McCrae / Psychic Hot Line
Жанр: Funk, Soul, R&B
Носитель: CD
Страна-производитель диска (релиза): USA
Год издания: 1996
Издатель (лейбл): Goldwax Records
Номер по каталогу: GWX 4221-2
Аудиокодек: FLAC (*.flac)
Тип рипа: image+.cue
Битрейт аудио: lossless
Продолжительность: 0:45:12.55 h:m:s.f
Источник (релизер): pazanenok
Наличие сканов в содержимом раздачи: нет
Треклист:
01.Cry To Me
02.Loving Peter To Pay Back Paul
03.Standing Room Only
04.Do That To Me One More Time
05.Rocking Chair
06.Psychic Hot Line
07.Your Love Keeps Turning Me Around
08.The Soul Of A Man
09.Today I Sing The Blues
10.Your Kinda Loving Ain't Good Enough
11.The Snake That Hisses
12.Love And Affection
 
Лог создания рипа
Exact Audio Copy V1.0 beta 6 from 9. April 2015
Отчёт EAC об извлечении, выполненном 6. мая 2015, 8:43
Gwen McCrae / Psychic Hot Line
Дисковод: PIONEER DVD-RW DVR-219L Adapter: 1 ID: 0
Режим чтения : Достоверность
Использование точного потока : Да
Отключение кэша аудио : Да
Использование указателей C2 : Нет
Коррекция смещения при чтении : 6
Способность читать области Lead-in и Lead-out : Нет
Заполнение пропущенных сэмплов тишиной : Да
Удаление блоков с тишиной в начале и конце : Нет
При вычислениях CRC использовались нулевые сэмплы : Да
Интерфейс : Встроенный Win32-интерфейс для Win NT/2000
Выходной формат : Пользовательский кодировщик
Выбранный битрейт : 768 kBit/s
Качество : Высокий
Добавление ID3-тега : Нет
Утилита сжатия : C:\Program Files\Exact Audio Copy\FLAC\FLAC.EXE
Дополнительные параметры : -6 -V -T "ARTIST=%artist%" -T "TITLE=%title%" -T "ALBUM=%albumtitle%" -T "DATE=%year%" -T "TRACKNUMBER=%tracknr%" -T "GENRE=%genre%" -T "COMMENT=%comment%" -T "BAND=%albuminterpret%" -T "ALBUMARTIST=%albuminterpret%" -T "COMPOSER=%composer%" %haslyrics%--tag-from-file=LYRICS="%lyricsfile%"%haslyrics% -T "DISCNUMBER=%cdnumber%" -T "TOTALDISCS=%totalcds%" -T "TOTALTRACKS=%numtracks%" %hascover%--picture="%coverfile%"%hascover% %source% -o %dest%
TOC извлечённого CD
Трек | Старт | Длительность | Начальный сектор | Конечный сектор
---------------------------------------------------------------------
1 | 0:00.00 | 3:33.02 | 0 | 15976
2 | 3:33.02 | 4:12.20 | 15977 | 34896
3 | 7:45.22 | 3:33.73 | 34897 | 50944
4 | 11:19.20 | 3:12.70 | 50945 | 65414
5 | 14:32.15 | 4:05.62 | 65415 | 83851
6 | 18:38.02 | 3:57.28 | 83852 | 101654
7 | 22:35.30 | 3:40.65 | 101655 | 118219
8 | 26:16.20 | 4:04.60 | 118220 | 136579
9 | 30:21.05 | 2:53.57 | 136580 | 149611
10 | 33:14.62 | 4:26.47 | 149612 | 169608
11 | 37:41.34 | 3:53.06 | 169609 | 187089
12 | 41:34.40 | 3:38.15 | 187090 | 203454
Характеристики диапазона извлечения и сообщения об ошибках
Выбранный диапазон
Имя файла E:\Раздачи\Gwen McCrae - Psychic Hot Line - 1996\Gwen McCrae - Psychic Hot Line.wav
Пиковый уровень 100.0 %
Скорость извлечения 2.8 X
Качество диапазона 100.0 %
CRC копии 01A30359
Копирование... OK
Ошибок не произошло
AccurateRip: сводка
Трек 1 : извлечено точно (доверие 1) [198A8444] (AR v1)
Трек 2 : извлечено точно (доверие 1) [8C117BA8] (AR v1)
Трек 3 : извлечено точно (доверие 1) [0DF64088] (AR v1)
Трек 4 : извлечено точно (доверие 1) [45B31C82] (AR v1)
Трек 5 : извлечено точно (доверие 1) [7FBF5153] (AR v1)
Трек 6 : извлечено точно (доверие 1) [FDB109E0] (AR v1)
Трек 7 : извлечено точно (доверие 1) [3D34B094] (AR v1)
Трек 8 : извлечено точно (доверие 1) [5039002A] (AR v1)
Трек 9 : извлечено точно (доверие 1) [1FE82810] (AR v1)
Трек 10 : извлечено точно (доверие 1) [715908FA] (AR v1)
Трек 11 : извлечено точно (доверие 1) [6D4E86A7] (AR v1)
Трек 12 : извлечено точно (доверие 1) [E78D9BB1] (AR v1)
Все треки извлечены точно
Конец отчёта
---- CUETools DB Plugin V2.1.6
[CTDB TOCID: QfN4rilulMOuT46b2SmSVxQspbk-] found
Submit result: QfN4rilulMOuT46b2SmSVxQspbk- has been confirmed
Track | CTDB Status
1 | (1/1) Accurately ripped
2 | (1/1) Accurately ripped
3 | (1/1) Accurately ripped
4 | (1/1) Accurately ripped
5 | (1/1) Accurately ripped
6 | (1/1) Accurately ripped
7 | (1/1) Accurately ripped
8 | (1/1) Accurately ripped
9 | (1/1) Accurately ripped
10 | (1/1) Accurately ripped
11 | (1/1) Accurately ripped
12 | (1/1) Accurately ripped
Приватный:
Нет (DHT включён)
Размер:
293.42 Мб (307,668,257 байт) » файлов: 5
Участники:
0 раздают, 0 качают (0 участников всего)
Внешние участники:
1 раздают, 0 качают (1 участников всего) [ Обновить ]
Есть вопросы - пишите личное сообщение пользователю M0p94ok.
05:59
51
Нет комментариев. Ваш будет первым!