Поиск

(Funk, Soul, R&B) [CD] L.T.D. - Something To Love - 1977, FLAC (image+.cue), lossless

(Funk, Soul, R&B) [CD] L.T.D. - Something To Love - 1977, FLAC (image+.cue), lossless
Треклист:
L.T.D. / Something To Love
Жанр: Funk, Soul, R&B
Носитель: CD
Страна-производитель диска (релиза): Japan
Год издания: 1977
Издатель (лейбл): A&M Records, Inc
Номер по каталогу: D20Y4021
Аудиокодек: FLAC (*.flac)
Тип рипа: image+.cue
Битрейт аудио: lossless
Продолжительность: 0:39:54.02 h:m:s.f
Источник (релизер): pazanenok
Наличие сканов в содержимом раздачи: нет
Треклист:
01.Age Of The Showdown
02.Won't Cha) Stay With Me
03.(Every Time I Turn Around) Back In Love Again
04.You Come First At Last
05.We Party Hearty
06.If You're In Need
07.Never Get Enough Of Your Love
08.Make Someone Smile
09.Material Things
 
Лог создания рипа
Exact Audio Copy V1.0 beta 6 from 9. April 2015
Отчёт EAC об извлечении, выполненном 6. мая 2015, 16:48
L.T.D. / Something To Love
Дисковод: PIONEER DVD-RW DVR-219L Adapter: 1 ID: 0
Режим чтения : Достоверность
Использование точного потока : Да
Отключение кэша аудио : Да
Использование указателей C2 : Нет
Коррекция смещения при чтении : 6
Способность читать области Lead-in и Lead-out : Нет
Заполнение пропущенных сэмплов тишиной : Да
Удаление блоков с тишиной в начале и конце : Нет
При вычислениях CRC использовались нулевые сэмплы : Да
Интерфейс : Встроенный Win32-интерфейс для Win NT/2000
Выходной формат : Пользовательский кодировщик
Выбранный битрейт : 768 kBit/s
Качество : Высокий
Добавление ID3-тега : Нет
Утилита сжатия : C:\Program Files\Exact Audio Copy\FLAC\FLAC.EXE
Дополнительные параметры : -6 -V -T "ARTIST=%artist%" -T "TITLE=%title%" -T "ALBUM=%albumtitle%" -T "DATE=%year%" -T "TRACKNUMBER=%tracknr%" -T "GENRE=%genre%" -T "COMMENT=%comment%" -T "BAND=%albuminterpret%" -T "ALBUMARTIST=%albuminterpret%" -T "COMPOSER=%composer%" %haslyrics%--tag-from-file=LYRICS="%lyricsfile%"%haslyrics% -T "DISCNUMBER=%cdnumber%" -T "TOTALDISCS=%totalcds%" -T "TOTALTRACKS=%numtracks%" %hascover%--picture="%coverfile%"%hascover% %source% -o %dest%
TOC извлечённого CD
Трек | Старт | Длительность | Начальный сектор | Конечный сектор
---------------------------------------------------------------------
1 | 0:00.00 | 5:43.40 | 0 | 25764
2 | 5:43.40 | 4:01.25 | 25765 | 43864
3 | 9:44.65 | 4:49.17 | 43865 | 65556
4 | 14:34.07 | 4:07.58 | 65557 | 84139
5 | 18:41.65 | 5:18.30 | 84140 | 108019
6 | 24:00.20 | 3:41.67 | 108020 | 124661
7 | 27:42.12 | 3:49.40 | 124662 | 141876
8 | 31:31.52 | 4:06.20 | 141877 | 160346
9 | 35:37.72 | 4:16.05 | 160347 | 179551
Характеристики диапазона извлечения и сообщения об ошибках
Выбранный диапазон
Имя файла E:\Раздачи\L.T.D - Something To Love - 1977\L.T.D. - Something To Love.wav
Пиковый уровень 100.0 %
Скорость извлечения 2.6 X
Качество диапазона 99.9 %
CRC копии 080239FB
Копирование... OK
Ошибок не произошло
AccurateRip: сводка
Трек 1 : извлечено точно (доверие 1) [E1D881AA] (AR v2)
Трек 2 : извлечено точно (доверие 1) [91A5274E] (AR v2)
Трек 3 : извлечено точно (доверие 1) [7A4E9031] (AR v2)
Трек 4 : извлечено точно (доверие 1) [12F788F7] (AR v2)
Трек 5 : извлечено точно (доверие 1) [2F68AC65] (AR v2)
Трек 6 : извлечено точно (доверие 1) [4CC57C5F] (AR v2)
Трек 7 : извлечено точно (доверие 1) [5B5A6235] (AR v2)
Трек 8 : извлечено точно (доверие 1) [A85FDB7B] (AR v2)
Трек 9 : извлечено точно (доверие 1) [85020523] (AR v2)
Все треки извлечены точно
Конец отчёта
---- CUETools DB Plugin V2.1.6
[CTDB TOCID: 1gBDp2LHgplJibLEsDDyphDe8yc-] disk not present in database
Submit result: 1gBDp2LHgplJibLEsDDyphDe8yc- has been uploaded
Приватный:
Нет (DHT включён)
Размер:
222.75 Мб (233,566,154 байт) » файлов: 5
Участники:
0 раздают, 0 качают (0 участников всего)
Внешние участники:
2 раздают, 1 качают (3 участников всего) [ Обновить ]
Есть вопросы - пишите личное сообщение пользователю M0p94ok.
05:59
69
Нет комментариев. Ваш будет первым!