Поиск

(Jazz-Funk) [CD] Akira Ishikawa & Count Buffalo - Uganda (Dawn of African Rock) - 1972 (2008 Japan Edition), FLAC (tracks+.cue), lossless

(Jazz-Funk) [CD] Akira Ishikawa & Count Buffalo - Uganda (Dawn of African Rock) - 1972 (2008 Japan Edition), FLAC (tracks+.cue), lossless
Треклист:
Akira Ishikawa & Count Buffalo - Uganda (Dawn of African Rock)
Жанр: Jazz-Funk
Носитель: CD
Страна-производитель диска (релиза): Япония
Год издания: 1972 (2008)
Издатель (лейбл): Tiliqua Records
Номер по каталогу: TILAR-5012
Аудиокодек: FLAC (*.flac)
Тип рипа: tracks+.cue
Битрейт аудио: lossless
Продолжительность: 36:33
Источник (релизер): beatledennis (what)
Наличие сканов в содержимом раздачи: нет
Треклист:
01. Wanyamana Mapambazuko (Muraoka-Ishikawa) - 11:41
02. Na Tu Penda Sana (Muraoka-Ishikawa) - 9:23
03. Vita (Muraoka-Ishikawa) - 7:43
04. Pigmy (Muraoka-Ishikawa) - 7:46
Состав:
Akira Ishikawa - drums, percussion
Kimio Mizutani - guitar
Hideaki Chihara - bass
Larry Sunaga - percussion
 
Лог создания рипа
X Lossless Decoder version 20091230 (115.2)
XLD extraction logfile from 2010-01-02 18:20:29 +0200
Akira Ishikawa & Count Buffalo / Uganda
Used drive : MATSHITA DVD-R UJ-868 (revision KB19)
Use cdparanoia mode : YES (CDParanoia III 10.2 engine)
Disable audio cache : OK for the drive with cache less than 2750KB
Make use of C2 pointers : NO
Read offset correction : 102
Max retry count : 100
TOC of the extracted CD
Track | Start | Length | Start sector | End sector
---------------------------------------------------------
1 | 00:00:00 | 11:41:36 | 0 | 52610
2 | 11:41:36 | 09:22:40 | 52611 | 94800
3 | 21:04:01 | 07:43:16 | 94801 | 129541
4 | 28:47:17 | 07:45:63 | 129542 | 164479
Track 01
Filename : /Muzak/Akira Ishikawa & Count Buffalo - 1972 - Uganda/01 - Wanyamana Mapambazuko.flac
Pre-gap length : 00:02:00
CRC32 hash (test run) : A71D7BFE
CRC32 hash : A71D7BFE
CRC32 hash (skip zero) : BD2A4199
AccurateRip signature : 7FE0B05D
->Accurately ripped! (confidence 1)
Statistics
Read error : 0
Skipped (treated as error) : 0
Edge jitter error (maybe fixed) : 0
Atom jitter error (maybe fixed) : 0
Drift error (maybe fixed) : 0
Dropped bytes error (maybe fixed) : 0
Duplicated bytes error (maybe fixed) : 0
Inconsistency in error sectors : 0
Track 02
Filename : /Muzak/Akira Ishikawa & Count Buffalo - 1972 - Uganda/02 - Na Tu Penda Sana.flac
Pre-gap length : 00:02:52
CRC32 hash (test run) : D744FCEE
CRC32 hash : D744FCEE
CRC32 hash (skip zero) : 9DA1B3CD
AccurateRip signature : 2F5E34CE
->Accurately ripped! (confidence 1)
Statistics
Read error : 0
Skipped (treated as error) : 0
Edge jitter error (maybe fixed) : 0
Atom jitter error (maybe fixed) : 0
Drift error (maybe fixed) : 0
Dropped bytes error (maybe fixed) : 0
Duplicated bytes error (maybe fixed) : 0
Inconsistency in error sectors : 0
Track 03
Filename : /Muzak/Akira Ishikawa & Count Buffalo - 1972 - Uganda/03 - Vita.flac
Pre-gap length : 00:02:57
CRC32 hash (test run) : 762A8DE4
CRC32 hash : 762A8DE4
CRC32 hash (skip zero) : 9A3AB545
AccurateRip signature : BFFEF3C6
->Accurately ripped! (confidence 1)
Statistics
Read error : 0
Skipped (treated as error) : 0
Edge jitter error (maybe fixed) : 0
Atom jitter error (maybe fixed) : 0
Drift error (maybe fixed) : 0
Dropped bytes error (maybe fixed) : 0
Duplicated bytes error (maybe fixed) : 0
Inconsistency in error sectors : 0
Track 04
Filename : /Muzak/Akira Ishikawa & Count Buffalo - 1972 - Uganda/04 - Pigmy.flac
Pre-gap length : 00:02:61
CRC32 hash (test run) : BB4DD8A0
CRC32 hash : BB4DD8A0
CRC32 hash (skip zero) : 205FE5AF
AccurateRip signature : 01CB2B2C
->Accurately ripped! (confidence 1)
Statistics
Read error : 0
Skipped (treated as error) : 0
Edge jitter error (maybe fixed) : 0
Atom jitter error (maybe fixed) : 0
Drift error (maybe fixed) : 0
Dropped bytes error (maybe fixed) : 0
Duplicated bytes error (maybe fixed) : 0
Inconsistency in error sectors : 0
No errors occurred
End of status report
 
Содержание индексной карты (.CUE)
TITLE "Uganda (Dawn of African Rock)"
PERFORMER "Akira Ishikawa & Count Buffalo"
REM GENRE "Jazz"
REM DATE "1972"
FILE "01 - Wanyamana Mapambazuko.wav" WAVE
TRACK 01 AUDIO
TITLE "Wanyamana Mapambazuko"
INDEX 01 00:00:00
TRACK 02 AUDIO
TITLE "Na Tu Penda Sana"
INDEX 00 11:38:59
FILE "02 - Na Tu Penda Sana.wav" WAVE
INDEX 01 00:00:00
TRACK 03 AUDIO
TITLE "Vita"
INDEX 00 09:19:58
FILE "03 - Vita.wav" WAVE
INDEX 01 00:00:00
TRACK 04 AUDIO
TITLE "Pigmy"
INDEX 00 07:40:30
FILE "04 - Pigmy.wav" WAVE
INDEX 01 00:00:00
 
Об альбоме (сборнике)
Akira Ishikawa had a mission. He wanted to find the eternal now of rhythm. After a mind-blowing trip to Africa in 1970, the Japanese percussionist had a goal — true Afro-delic Acid Rock. He hooked up with composer Muroaka Takeru and this album was born in 1971. Awash in minimalist percussion — at times sounding like a field recording of a commune or some street performers — the album devolves into primitive heavy acid rock and throbbing seriousness. Ishikawa's intense personal vision and mission is no record-collector curiosity. This beauty deserves our attention.
Long known to collectors of bizarre Japanese psychedelic/heavy rock (see Cope, Julian), Uganda became something of a mystery and a holy grail. The album screams, too. It stumbles into that same primal early rock, excuse me, RAWK place that bands like Leaf Hound, The Edgar Broughton Band, and Australia's Buffalo ended up. In fact, this record comes off like a recording of the jam sessions that led to the riffs and beats of the James Gang's "Funk #49" but without all that familiarity from FM radio. Famed guitarist Mizutani Kimio trades monster licks with rambling percussion, an impressive drum kit (Ishikawa) and lots of moaning and throb.
The opening cut "Wanyamana Mapambazuko" will attract the most attention. It's utter heaviness will recall the stomping feet of Flower Travelling Band's Satori or even the Groundhogs' monstrous Split. The layers of percussion unsettle and make the walls wiggle. They evoke the sound of long dead gods in old amplifiers and fingers rubbing on hide.
-- Matt Laferty
Приватный:
Нет (DHT включён)
Размер:
220.06 Мб (230,750,357 байт) » файлов: 12
Участники:
0 раздают, 0 качают (0 участников всего)
Внешние участники:
3 раздают, 1 качают (4 участников всего) [ Обновить ]
Есть вопросы - пишите личное сообщение пользователю M0p94ok.
05:58
88
Нет комментариев. Ваш будет первым!