Поиск

(Funk / Soul) [CD] G.C. Cameron - 4 albums (1976-1996) - 2008-2014, FLAC (tracks+.cue, tracks), lossless

(Funk / Soul) [CD] G.C. Cameron - 4 albums (1976-1996) - 2008-2014, FLAC (tracks+.cue, tracks), lossless
Треклист:
G.C. Cameron / 4 albums (1976-1996)
Жанр: Funk / Soul
Носитель: CD
Год издания: 2008-2014
Издатель (лейбл): Motown, Malaco, Motorcity Recordings
Страна исполнителя (группы): USA
Аудиокодек: FLAC (*.flac)
Тип рипа: tracks+.cue, tracks
Битрейт аудио: lossless
Продолжительность: 0:35:24+0:38:00+0:37:34+1:07:32
Источник (релизер): интернет
Наличие сканов в содержимом раздачи: да
 
1976 - G.C. Cameron (00:35:24)
01 Dream Lady
02 Me And My Life
03 If I Ever Lose This Heaven
04 Include Me In Your Life
05 Don't You Want To Give It Up
06 Truly Blue
07 The Joy You Bring
08 Share Your Life (Let Me In)
09 Strong Love
10 It's So Hard To Say Goodbye To Yesterday
 
Лог создания рипа
Exact Audio Copy V1.0 beta 3 from 29. August 2011
EAC extraction logfile from 31. January 2015, 2:34
G.C. Cameron / G.C. Cameron (2014 Remastered)
Used drive : PIONEER BD-RW BDR-XD05 Adapter: 2 ID: 0
Read mode : Secure
Utilize accurate stream : Yes
Defeat audio cache : Yes
Make use of C2 pointers : No
Read offset correction : 667
Overread into Lead-In and Lead-Out : No
Fill up missing offset samples with silence : Yes
Delete leading and trailing silent blocks : No
Null samples used in CRC calculations : Yes
Used interface : Native Win32 interface for Win NT & 2000
Gap handling : Appended to previous track
Used output format : User Defined Encoder
Selected bitrate : 1024 kBit/s
Quality : High
Add ID3 tag : No
Command line compressor : C:\Program Files (x86)\Exact Audio Copy\Flac\flac.exe
Additional command line options : -8 -V -T "ARTIST=%artist%" -T "TITLE=%title%" -T "ALBUM=%albumtitle%" -T "DATE=%year%" -T "TRACKNUMBER=%tracknr%" -T "GENRE=%genre%" -T "PERFORMER=%albuminterpret%" -T "COMPOSER=%composer%" %haslyrics%--tag-from-file=LYRICS="%lyricsfile%"%haslyrics% -T "ALBUMARTIST=%albumartist%" -T "DISCNUMBER=%cdnumber%" -T "TOTALDISCS=%totalcds%" -T "TOTALTRACKS=%numtracks%" -T "COMMENT=%comment%" %source% -o %dest%
TOC of the extracted CD
Track | Start | Length | Start sector | End sector
---------------------------------------------------------
1 | 0:00.00 | 3:32.32 | 0 | 15931
2 | 3:32.32 | 3:41.71 | 15932 | 32577
3 | 7:14.28 | 3:20.37 | 32578 | 47614
4 | 10:34.65 | 4:12.09 | 47615 | 66523
5 | 14:46.74 | 3:15.51 | 66524 | 81199
6 | 18:02.50 | 3:00.52 | 81200 | 94751
7 | 21:03.27 | 3:22.60 | 94752 | 109961
8 | 24:26.12 | 3:59.02 | 109962 | 127888
9 | 28:25.14 | 3:34.33 | 127889 | 143971
10 | 31:59.47 | 3:24.13 | 143972 | 159284
Track 1
Filename C:\EACRips\01 Dream Lady.wav
Pre-gap length 0:00:02.00
Peak level 97.1 %
Extraction speed 2.7 X
Track quality 100.0 %
Test CRC 4C82D08A
Copy CRC 4C82D08A
Accurately ripped (confidence 3) [0D288BD1] (AR v2)
Copy OK
Track 2
Filename C:\EACRips\02 Me And My Life.wav
Pre-gap length 0:00:02.20
Peak level 97.1 %
Extraction speed 3.0 X
Track quality 100.0 %
Test CRC D2C78EFD
Copy CRC D2C78EFD
Accurately ripped (confidence 3) [2D1513F7] (AR v2)
Copy OK
Track 3
Filename C:\EACRips\03 If I Ever Lose This Heaven.wav
Pre-gap length 0:00:01.32
Peak level 97.1 %
Extraction speed 2.8 X
Track quality 99.9 %
Test CRC 22BC0FE1
Copy CRC 22BC0FE1
Accurately ripped (confidence 3) [49D04727] (AR v2)
Copy OK
Track 4
Filename C:\EACRips\04 Include Me In Your Life.wav
Pre-gap length 0:00:01.78
Peak level 97.1 %
Extraction speed 3.6 X
Track quality 100.0 %
Test CRC 3B1D0F58
Copy CRC 3B1D0F58
Accurately ripped (confidence 3) [C520A55E] (AR v2)
Copy OK
Track 5
Filename C:\EACRips\05 Don't You Want To Give It Up.wav
Pre-gap length 0:00:01.28
Peak level 97.1 %
Extraction speed 3.6 X
Track quality 100.0 %
Test CRC 88E294EF
Copy CRC 88E294EF
Accurately ripped (confidence 3) [6CC95FCE] (AR v2)
Copy OK
Track 6
Filename C:\EACRips\06 Truly Blue.wav
Pre-gap length 0:00:02.00
Peak level 97.1 %
Extraction speed 3.7 X
Track quality 100.0 %
Test CRC 76CBCEF1
Copy CRC 76CBCEF1
Accurately ripped (confidence 3) [3DC8D206] (AR v2)
Copy OK
Track 7
Filename C:\EACRips\07 The Joy You Bring.wav
Pre-gap length 0:00:01.25
Peak level 97.1 %
Extraction speed 4.0 X
Track quality 100.0 %
Test CRC A92357D4
Copy CRC A92357D4
Accurately ripped (confidence 3) [B8862B28] (AR v2)
Copy OK
Track 8
Filename C:\EACRips\08 Share Your Life (Let Me In).wav
Pre-gap length 0:00:00.88
Peak level 97.1 %
Extraction speed 3.8 X
Track quality 99.9 %
Test CRC 7D166105
Copy CRC 7D166105
Accurately ripped (confidence 3) [E314D602] (AR v2)
Copy OK
Track 9
Filename C:\EACRips\09 Strong Love.wav
Pre-gap length 0:00:01.38
Peak level 97.1 %
Extraction speed 3.8 X
Track quality 99.9 %
Test CRC C78057C2
Copy CRC C78057C2
Accurately ripped (confidence 3) [3053DB76] (AR v2)
Copy OK
Track 10
Filename C:\EACRips\10 It's So Hard To Say Goodbye To Yesterday.wav
Pre-gap length 0:00:00.76
Peak level 97.1 %
Extraction speed 3.8 X
Track quality 99.9 %
Test CRC 549CEEC4
Copy CRC 549CEEC4
Accurately ripped (confidence 3) [6CB028BE] (AR v2)
Copy OK
All tracks accurately ripped
No errors occurred
End of status report
---- CUETools DB Plugin V2.1.3
[CTDB TOCID: 5wd.tsoI_Z1Iinj5ckrC8jRDvOE-] found, Submit result: 5wd.tsoI_Z1Iinj5ckrC8jRDvOE- has been confirmed
[28b44ef9] (3/3) Accurately ripped
==== Log checksum 5D152F3A5ADB9F74537B6F7BE0788ECAF857AA4447F3626759A61C4371A9E635 ====
 
Содержание индексной карты (.CUE)
REM GENRE Soul
REM DATE 1976
REM DISCID 87084B0A
REM COMMENT "ExactAudioCopy v1.0b3"
PERFORMER "G.C. Cameron"
TITLE "G.C. Cameron (2014 Remastered)"
FILE "01 Dream Lady.wav" WAVE
TRACK 01 AUDIO
TITLE "Dream Lady"
PERFORMER "G.C. Cameron"
INDEX 01 00:00:00
TRACK 02 AUDIO
TITLE "Me And My Life"
PERFORMER "G.C. Cameron"
INDEX 00 03:30:17
FILE "02 Me And My Life.wav" WAVE
INDEX 01 00:00:00
TRACK 03 AUDIO
TITLE "If I Ever Lose This Heaven"
PERFORMER "G.C. Cameron"
INDEX 00 03:40:47
FILE "03 If I Ever Lose This Heaven.wav" WAVE
INDEX 01 00:00:00
TRACK 04 AUDIO
TITLE "Include Me In Your Life"
PERFORMER "G.C. Cameron"
INDEX 00 03:18:53
FILE "04 Include Me In Your Life.wav" WAVE
INDEX 01 00:00:00
TRACK 05 AUDIO
TITLE "Don't You Want To Give It Up"
PERFORMER "G.C. Cameron"
INDEX 00 04:10:63
FILE "05 Don't You Want To Give It Up.wav" WAVE
INDEX 01 00:00:00
TRACK 06 AUDIO
TITLE "Truly Blue"
PERFORMER "G.C. Cameron"
INDEX 00 03:13:51
FILE "06 Truly Blue.wav" WAVE
INDEX 01 00:00:00
TRACK 07 AUDIO
TITLE "The Joy You Bring"
PERFORMER "G.C. Cameron"
INDEX 00 02:59:33
FILE "07 The Joy You Bring.wav" WAVE
INDEX 01 00:00:00
TRACK 08 AUDIO
TITLE "Share Your Life (Let Me In)"
PERFORMER "G.C. Cameron"
INDEX 00 03:21:69
FILE "08 Share Your Life (Let Me In).wav" WAVE
INDEX 01 00:00:00
TRACK 09 AUDIO
TITLE "Strong Love"
PERFORMER "G.C. Cameron"
INDEX 00 03:57:48
FILE "09 Strong Love.wav" WAVE
INDEX 01 00:00:00
TRACK 10 AUDIO
TITLE "It's So Hard To Say Goodbye To Yesterday"
PERFORMER "G.C. Cameron"
INDEX 00 03:33:51
FILE "10 It's So Hard To Say Goodbye To Yesterday.wav" WAVE
INDEX 01 00:00:00
 
1977 - You're What's Missing In My Life (00:38:00)
01 This Will Make You Dance
02 You're What's Missing In My Life
03 Don't Tear Down What Took So Long To Build
04 Kiss Me When You Want To
05 You Need a Strong Dose of Love
06 Let's Run Away Together
07 I'll Love You Forever
08 I'll Be Your Servant
09 Nothing Sweeter Than Love
 
Лог проверки качества
AUDIOCHECKER v2.0 beta (build 457) - by Dester - opdester@freemail.hu
~~~~~~~~~~~~~~~~~~~~~~~~~~~~~~~~~~
Начато: понедельник, 27. 04. 2015. - 0:07.22
Найдено файлов: 9
1 -===- D:\Torrentishe\G.C. Cameron\G.C. Cameron - Collection (1976-1996)\1977 - You're What's Missing In My Life [Motown]\01 This Will Make You Dance.flac
Извлечение успешно выполнено
Заключение: этот трек - CDDA с вероятностью 100%
Временный файл удалён.
2 -===- D:\Torrentishe\G.C. Cameron\G.C. Cameron - Collection (1976-1996)\1977 - You're What's Missing In My Life [Motown]\02 You're What's Missing In My Life.flac
Извлечение успешно выполнено
Заключение: этот трек - CDDA с вероятностью 100%
Временный файл удалён.
3 -===- D:\Torrentishe\G.C. Cameron\G.C. Cameron - Collection (1976-1996)\1977 - You're What's Missing In My Life [Motown]\03 Don't Tear Down What Took So Long To Build.flac
Извлечение успешно выполнено
Заключение: этот трек - CDDA с вероятностью 100%
Временный файл удалён.
4 -===- D:\Torrentishe\G.C. Cameron\G.C. Cameron - Collection (1976-1996)\1977 - You're What's Missing In My Life [Motown]\04 Kiss Me When You Want To.flac
Извлечение успешно выполнено
Заключение: этот трек - CDDA с вероятностью 99%
Временный файл удалён.
5 -===- D:\Torrentishe\G.C. Cameron\G.C. Cameron - Collection (1976-1996)\1977 - You're What's Missing In My Life [Motown]\05 You Need a Strong Dose of Love.flac
Извлечение успешно выполнено
Заключение: этот трек - CDDA с вероятностью 100%
Временный файл удалён.
6 -===- D:\Torrentishe\G.C. Cameron\G.C. Cameron - Collection (1976-1996)\1977 - You're What's Missing In My Life [Motown]\06 Let's Run Away Together.flac
Извлечение успешно выполнено
Заключение: этот трек - CDDA с вероятностью 100%
Временный файл удалён.
7 -===- D:\Torrentishe\G.C. Cameron\G.C. Cameron - Collection (1976-1996)\1977 - You're What's Missing In My Life [Motown]\07 I'll Love You Forever.flac
Извлечение успешно выполнено
Заключение: этот трек - CDDA с вероятностью 99%
Временный файл удалён.
8 -===- D:\Torrentishe\G.C. Cameron\G.C. Cameron - Collection (1976-1996)\1977 - You're What's Missing In My Life [Motown]\08 I'll Be Your Servant.flac
Извлечение успешно выполнено
Заключение: этот трек - CDDA с вероятностью 99%
Временный файл удалён.
9 -===- D:\Torrentishe\G.C. Cameron\G.C. Cameron - Collection (1976-1996)\1977 - You're What's Missing In My Life [Motown]\09 Nothing Sweeter Than Love.flac
Извлечение успешно выполнено
Заключение: этот трек - CDDA с вероятностью 99%
Временный файл удалён.
Завершено: понедельник, 27. 04. 2015. - 0:10.07 (Время операции: 0:02.45)
 
1983 - Give Me Your Love (00:37:34)
01 Let's Share
02 Hearts & Flowers
03 So Hard To Say Goodbye To Yesterday
04 Pride & Joy
05 Give Me Your Love
06 No Lovin' Til Friday
07 NIght Like This In Georgia
08 Hold You To Your Promise
09 Caught In Your Love Trap
 
Лог создания рипа
Exact Audio Copy V1.0 beta 3 from 29. August 2011
EAC extraction logfile from 27. January 2015, 1:27
G.C. Cameron / Give Me Your Love (2014 Remastered)
Used drive : PIONEER BD-RW BDR-XD05 Adapter: 2 ID: 0
Read mode : Secure
Utilize accurate stream : Yes
Defeat audio cache : Yes
Make use of C2 pointers : No
Read offset correction : 667
Overread into Lead-In and Lead-Out : No
Fill up missing offset samples with silence : Yes
Delete leading and trailing silent blocks : No
Null samples used in CRC calculations : Yes
Used interface : Native Win32 interface for Win NT & 2000
Gap handling : Appended to previous track
Used output format : User Defined Encoder
Selected bitrate : 1024 kBit/s
Quality : High
Add ID3 tag : No
Command line compressor : C:\Program Files (x86)\Exact Audio Copy\Flac\flac.exe
Additional command line options : -8 -V -T "ARTIST=%artist%" -T "TITLE=%title%" -T "ALBUM=%albumtitle%" -T "DATE=%year%" -T "TRACKNUMBER=%tracknr%" -T "GENRE=%genre%" -T "PERFORMER=%albuminterpret%" -T "COMPOSER=%composer%" %haslyrics%--tag-from-file=LYRICS="%lyricsfile%"%haslyrics% -T "ALBUMARTIST=%albumartist%" -T "DISCNUMBER=%cdnumber%" -T "TOTALDISCS=%totalcds%" -T "TOTALTRACKS=%numtracks%" -T "COMMENT=%comment%" %source% -o %dest%
TOC of the extracted CD
Track | Start | Length | Start sector | End sector
---------------------------------------------------------
1 | 0:00.00 | 3:54.03 | 0 | 17552
2 | 3:54.03 | 4:08.70 | 17553 | 36222
3 | 8:02.73 | 4:16.05 | 36223 | 55427
4 | 12:19.03 | 4:02.42 | 55428 | 73619
5 | 16:21.45 | 3:57.10 | 73620 | 91404
6 | 20:18.55 | 4:32.57 | 91405 | 111861
7 | 24:51.37 | 5:27.31 | 111862 | 136417
8 | 30:18.68 | 3:41.74 | 136418 | 153066
9 | 34:00.67 | 3:33.03 | 153067 | 169044
Track 1
Filename C:\EACRips\01 Let's Share.wav
Pre-gap length 0:00:02.00
Peak level 96.6 %
Extraction speed 2.5 X
Track quality 99.9 %
Test CRC F4D3BC33
Copy CRC F4D3BC33
Accurately ripped (confidence 1) [54AC4F03] (AR v2)
Copy OK
Track 2
Filename C:\EACRips\02 Hearts & Flowers.wav
Peak level 96.6 %
Extraction speed 3.1 X
Track quality 100.0 %
Test CRC C9950033
Copy CRC C9950033
Accurately ripped (confidence 1) [806E4449] (AR v2)
Copy OK
Track 3
Filename C:\EACRips\03 So Hard To Say Goodbye To Yesterday.wav
Peak level 96.6 %
Extraction speed 3.4 X
Track quality 100.0 %
Test CRC 0157DA1A
Copy CRC 0157DA1A
Accurately ripped (confidence 1) [3FFB2477] (AR v2)
Copy OK
Track 4
Filename C:\EACRips\04 Pride & Joy.wav
Peak level 96.6 %
Extraction speed 3.6 X
Track quality 100.0 %
Test CRC E3B3A5C9
Copy CRC E3B3A5C9
Accurately ripped (confidence 1) [7AD97D3D] (AR v2)
Copy OK
Track 5
Filename C:\EACRips\05 Give Me Your Love.wav
Peak level 96.6 %
Extraction speed 3.8 X
Track quality 100.0 %
Test CRC 7356AEE5
Copy CRC 7356AEE5
Accurately ripped (confidence 1) [05297788] (AR v2)
Copy OK
Track 6
Filename C:\EACRips\06 No Lovin' Til Friday.wav
Peak level 96.6 %
Extraction speed 4.1 X
Track quality 100.0 %
Test CRC 3E8F4821
Copy CRC 3E8F4821
Accurately ripped (confidence 1) [BE286642] (AR v2)
Copy OK
Track 7
Filename C:\EACRips\07 NIght Like This In Georgia.wav
Peak level 96.6 %
Extraction speed 4.4 X
Track quality 100.0 %
Test CRC 6079F10C
Copy CRC 6079F10C
Accurately ripped (confidence 1) [E164A8F1] (AR v2)
Copy OK
Track 8
Filename C:\EACRips\08 Hold You To Your Promise.wav
Peak level 96.6 %
Extraction speed 4.4 X
Track quality 100.0 %
Test CRC FB9C7CDE
Copy CRC FB9C7CDE
Accurately ripped (confidence 1) [0F365B32] (AR v2)
Copy OK
Track 9
Filename C:\EACRips\09 Caught In Your Love Trap.wav
Peak level 96.6 %
Extraction speed 4.5 X
Track quality 100.0 %
Test CRC B303B27F
Copy CRC B303B27F
Accurately ripped (confidence 1) [28445E22] (AR v2)
Copy OK
All tracks accurately ripped
No errors occurred
End of status report
---- CUETools DB Plugin V2.1.3
[CTDB TOCID: Q0UfGloDZiXiV7eqqOAFOIp9hao-] found, Submit result: Q0UfGloDZiXiV7eqqOAFOIp9hao- has been confirmed
[6ea84d3a] (1/1) Accurately ripped
==== Log checksum 5C9581E3B24529F4F2F1DFE9F54E9FF10DF08F518714A33CFE64D16F59CC56A1 ====
 
Содержание индексной карты (.CUE)
REM GENRE Soul
REM DATE 1983
REM DISCID 6608CD09
REM COMMENT "ExactAudioCopy v1.0b3"
PERFORMER "G.C. Cameron"
TITLE "Give Me Your Love (2014 Remastered)"
FILE "01 Let's Share.wav" WAVE
TRACK 01 AUDIO
TITLE "Let's Share"
PERFORMER "G.C. Cameron"
INDEX 01 00:00:00
FILE "02 Hearts & Flowers.wav" WAVE
TRACK 02 AUDIO
TITLE "Hearts & Flowers"
PERFORMER "G.C. Cameron"
INDEX 01 00:00:00
FILE "03 So Hard To Say Goodbye To Yesterday.wav" WAVE
TRACK 03 AUDIO
TITLE "So Hard To Say Goodbye To Yesterday"
PERFORMER "G.C. Cameron"
INDEX 01 00:00:00
FILE "04 Pride & Joy.wav" WAVE
TRACK 04 AUDIO
TITLE "Pride & Joy"
PERFORMER "G.C. Cameron"
INDEX 01 00:00:00
FILE "05 Give Me Your Love.wav" WAVE
TRACK 05 AUDIO
TITLE "Give Me Your Love"
PERFORMER "G.C. Cameron"
INDEX 01 00:00:00
FILE "06 No Lovin' Til Friday.wav" WAVE
TRACK 06 AUDIO
TITLE "No Lovin' Til Friday"
PERFORMER "G.C. Cameron"
INDEX 01 00:00:00
FILE "07 NIght Like This In Georgia.wav" WAVE
TRACK 07 AUDIO
TITLE "NIght Like This In Georgia"
PERFORMER "G.C. Cameron"
INDEX 01 00:00:00
FILE "08 Hold You To Your Promise.wav" WAVE
TRACK 08 AUDIO
TITLE "Hold You To Your Promise"
PERFORMER "G.C. Cameron"
INDEX 01 00:00:00
FILE "09 Caught In Your Love Trap.wav" WAVE
TRACK 09 AUDIO
TITLE "Caught In Your Love Trap"
PERFORMER "G.C. Cameron"
INDEX 01 00:00:00
 
1996 - The Very Best Of (01:07:32)
01 Right Of Way
02 It's A Shame
03 Straight In The Eye
04 Come Back To Me
05 Good Times Up Ahead
06 I'll Be Around
07 No Need To Explain
08 You're What's Missing In My Life
09 Too Busy Thinking About My Baby
10 Out Of My Mind
11 Just My Imagination
12 Right Or Wrong
13 Heartache Heartbreak
14 Runaway Child, Running Wild
15 London Bridge Is Burning Down
16 You're All I Need To Get By
 
Лог создания рипа
Exact Audio Copy V0.99 prebeta 5 from 4. May 2009
EAC extraction logfile from 11. December 2009, 18:00
G.C. Cameron / The Very Best Of The Motorcity Recordings
Used drive : TSSTcorpCDDVDW SH-S223F Adapter: 0 ID: 1
Read mode : Secure
Utilize accurate stream : Yes
Defeat audio cache : Yes
Make use of C2 pointers : No
Read offset correction : 6
Overread into Lead-In and Lead-Out : No
Fill up missing offset samples with silence : Yes
Delete leading and trailing silent blocks : No
Null samples used in CRC calculations : Yes
Used interface : Native Win32 interface for Win NT & 2000
Gap handling : Appended to previous track
Used output format : User Defined Encoder
Selected bitrate : 192 kBit/s
Quality : High
Add ID3 tag : No
Command line compressor : C:\Programme\Exact Audio Copy\Flac\flac.exe
Additional command line options : -V -5 -T "artist=%a" -T "title=%t" -T "album=%g" -T "date=%y" -T "tracknumber=%n" -T "genre=%m" %s
TOC of the extracted CD
Track | Start | Length | Start sector | End sector
---------------------------------------------------------
1 | 0:00.00 | 4:51.50 | 0 | 21874
2 | 4:51.50 | 3:52.14 | 21875 | 39288
3 | 8:43.64 | 4:29.61 | 39289 | 59524
4 | 13:13.50 | 5:37.00 | 59525 | 84799
5 | 18:50.50 | 3:40.35 | 84800 | 101334
6 | 22:31.10 | 4:07.22 | 101335 | 119881
7 | 26:38.32 | 4:34.05 | 119882 | 140436
8 | 31:12.37 | 3:45.25 | 140437 | 157336
9 | 34:57.62 | 3:19.47 | 157337 | 172308
10 | 38:17.34 | 3:41.00 | 172309 | 188883
11 | 41:58.34 | 3:46.43 | 188884 | 205876
12 | 45:45.02 | 4:31.05 | 205877 | 226206
13 | 50:16.07 | 5:19.68 | 226207 | 250199
14 | 55:36.00 | 4:33.07 | 250200 | 270681
15 | 60:09.07 | 4:16.28 | 270682 | 289909
16 | 64:25.35 | 3:07.02 | 289910 | 303936
Track 1
Filename H:\Eac Ripps\01. Right Of Way.wav
Pre-gap length 0:00:02.00
Peak level 99.9 %
Track quality 100.0 %
Test CRC 1C835135
Copy CRC 1C835135
Track not present in AccurateRip database
Copy OK
Track 2
Filename H:\Eac Ripps\02. It's A Shame.wav
Pre-gap length 0:00:03.00
Peak level 99.8 %
Track quality 100.0 %
Test CRC 1638F7DD
Copy CRC 1638F7DD
Track not present in AccurateRip database
Copy OK
Track 3
Filename H:\Eac Ripps\03. Straight In The Eye.wav
Pre-gap length 0:00:03.00
Peak level 99.9 %
Track quality 100.0 %
Test CRC D92F1605
Copy CRC D92F1605
Track not present in AccurateRip database
Copy OK
Track 4
Filename H:\Eac Ripps\04. Come Back To Me.wav
Pre-gap length 0:00:02.00
Peak level 99.9 %
Track quality 100.0 %
Test CRC E7C5C381
Copy CRC E7C5C381
Track not present in AccurateRip database
Copy OK
Track 5
Filename H:\Eac Ripps\05. Good Times Up Ahead.wav
Pre-gap length 0:00:03.00
Peak level 99.8 %
Track quality 99.9 %
Test CRC FE259CF5
Copy CRC FE259CF5
Track not present in AccurateRip database
Copy OK
Track 6
Filename H:\Eac Ripps\06. I'll Be Around.wav
Pre-gap length 0:00:03.00
Peak level 99.9 %
Track quality 100.0 %
Test CRC D64A5B19
Copy CRC D64A5B19
Track not present in AccurateRip database
Copy OK
Track 7
Filename H:\Eac Ripps\07. No Need To Explain.wav
Pre-gap length 0:00:04.00
Peak level 99.8 %
Track quality 100.0 %
Test CRC B7B1A7F8
Copy CRC B7B1A7F8
Track not present in AccurateRip database
Copy OK
Track 8
Filename H:\Eac Ripps\08. You're What's Missing In My Life.wav
Pre-gap length 0:00:04.00
Peak level 99.9 %
Track quality 100.0 %
Test CRC BCF63B73
Copy CRC BCF63B73
Track not present in AccurateRip database
Copy OK
Track 9
Filename H:\Eac Ripps\09. Too Busy Thinking About My Baby.wav
Pre-gap length 0:00:03.00
Peak level 99.8 %
Track quality 100.0 %
Test CRC 6A72C03D
Copy CRC 6A72C03D
Track not present in AccurateRip database
Copy OK
Track 10
Filename H:\Eac Ripps\10. Out Of My Mind.wav
Pre-gap length 0:00:03.00
Peak level 99.9 %
Track quality 100.0 %
Test CRC 1987C3F3
Copy CRC 1987C3F3
Track not present in AccurateRip database
Copy OK
Track 11
Filename H:\Eac Ripps\11. Just My Imagination.wav
Pre-gap length 0:00:04.00
Peak level 99.8 %
Track quality 100.0 %
Test CRC A793ACF0
Copy CRC A793ACF0
Track not present in AccurateRip database
Copy OK
Track 12
Filename H:\Eac Ripps\12. Right Or Wrong.wav
Pre-gap length 0:00:05.00
Peak level 99.8 %
Track quality 100.0 %
Test CRC 4B40E03C
Copy CRC 4B40E03C
Track not present in AccurateRip database
Copy OK
Track 13
Filename H:\Eac Ripps\13. Heartache Heartbreak.wav
Pre-gap length 0:00:03.00
Peak level 98.2 %
Track quality 100.0 %
Test CRC 110B0947
Copy CRC 110B0947
Track not present in AccurateRip database
Copy OK
Track 14
Filename H:\Eac Ripps\14. Runaway Child, Running Wild.wav
Pre-gap length 0:00:05.00
Peak level 99.9 %
Track quality 100.0 %
Test CRC E49436C0
Copy CRC E49436C0
Track not present in AccurateRip database
Copy OK
Track 15
Filename H:\Eac Ripps\15. London Bridge Is Burning Down.wav
Pre-gap length 0:00:03.00
Peak level 99.8 %
Track quality 99.9 %
Test CRC AD549B44
Copy CRC AD549B44
Track not present in AccurateRip database
Copy OK
Track 16
Filename H:\Eac Ripps\16. You're All I Need To Get By.wav
Pre-gap length 0:00:04.00
Peak level 99.9 %
Track quality 100.0 %
Test CRC AEE41301
Copy CRC AEE41301
Track not present in AccurateRip database
Copy OK
None of the tracks are present in the AccurateRip database
No errors occurred
End of status report
 
Содержание индексной карты (.CUE)
REM GENRE Soul
REM DATE 1996
REM DISCID E60FD410
REM COMMENT "ExactAudioCopy v0.99pb5"
PERFORMER "G.C. Cameron"
TITLE "The Very Best Of The Motorcity Recordings"
FILE "01 Right Of Way.wav" WAVE
TRACK 01 AUDIO
TITLE "Right Of Way"
PERFORMER "G.C. Cameron"
INDEX 01 00:00:00
TRACK 02 AUDIO
TITLE "It's A Shame"
PERFORMER "G.C. Cameron"
INDEX 00 04:48:50
FILE "02 It's A Shame.wav" WAVE
INDEX 01 00:00:00
TRACK 03 AUDIO
TITLE "Straight In The Eye"
PERFORMER "G.C. Cameron"
INDEX 00 03:49:14
FILE "03 Straight In The Eye.wav" WAVE
INDEX 01 00:00:00
TRACK 04 AUDIO
TITLE "Come Back To Me"
PERFORMER "G.C. Cameron"
INDEX 00 04:27:61
FILE "04 Come Back To Me.wav" WAVE
INDEX 01 00:00:00
TRACK 05 AUDIO
TITLE "Good Times Up Ahead"
PERFORMER "G.C. Cameron"
INDEX 00 05:34:00
FILE "05 Good Times Up Ahead.wav" WAVE
INDEX 01 00:00:00
TRACK 06 AUDIO
TITLE "I'll Be Around"
PERFORMER "G.C. Cameron"
INDEX 00 03:37:35
FILE "06 I'll Be Around.wav" WAVE
INDEX 01 00:00:00
TRACK 07 AUDIO
TITLE "No Need To Explain"
PERFORMER "G.C. Cameron"
INDEX 00 04:03:22
FILE "07 No Need To Explain.wav" WAVE
INDEX 01 00:00:00
TRACK 08 AUDIO
TITLE "You're What's Missing In My Life"
PERFORMER "G.C. Cameron"
INDEX 00 04:30:05
FILE "08 You're What's Missing In My Life.wav" WAVE
INDEX 01 00:00:00
TRACK 09 AUDIO
TITLE "Too Busy Thinking About My Baby"
PERFORMER "G.C. Cameron"
INDEX 00 03:42:25
FILE "09 Too Busy Thinking About My Baby.wav" WAVE
INDEX 01 00:00:00
TRACK 10 AUDIO
TITLE "Out Of My Mind"
PERFORMER "G.C. Cameron"
INDEX 00 03:16:47
FILE "10 Out Of My Mind.wav" WAVE
INDEX 01 00:00:00
TRACK 11 AUDIO
TITLE "Just My Imagination"
PERFORMER "G.C. Cameron"
INDEX 00 03:37:00
FILE "11 Just My Imagination.wav" WAVE
INDEX 01 00:00:00
TRACK 12 AUDIO
TITLE "Right Or Wrong"
PERFORMER "G.C. Cameron"
INDEX 00 03:41:43
FILE "12 Right Or Wrong.wav" WAVE
INDEX 01 00:00:00
TRACK 13 AUDIO
TITLE "Heartache Heartbreak"
PERFORMER "G.C. Cameron"
INDEX 00 04:28:05
FILE "13 Heartache Heartbreak.wav" WAVE
INDEX 01 00:00:00
TRACK 14 AUDIO
TITLE "Runaway Child, Running Wild"
PERFORMER "G.C. Cameron"
INDEX 00 05:14:68
FILE "14 Runaway Child, Running Wild.wav" WAVE
INDEX 01 00:00:00
TRACK 15 AUDIO
TITLE "London Bridge Is Burning Down"
PERFORMER "G.C. Cameron"
INDEX 00 04:30:07
FILE "15 London Bridge Is Burning Down.wav" WAVE
INDEX 01 00:00:00
TRACK 16 AUDIO
TITLE "You're All I Need To Get By"
PERFORMER "G.C. Cameron"
INDEX 00 04:12:28
FILE "16 You're All I Need To Get By.wav" WAVE
INDEX 01 00:00:00
 
Об исполнителе (группе)
Джордж Кёртис Кэмерон (G.C. Cameron) родился в сентябре 1945 года в штате Миссисипи и является на протяжении уже более 30 лет ведущим американским исполнителем стиля Soul и Funk. Ветеран войны во Вьетнаме, он после демобилизации в 1967 году подписал контракт с компанией Motown, где стал широко известен своим участием в группах The Spinners, The Temptations, а также сотрудничавший с Syreeta Wright. После ухода из Мотаун в конце 70-х, он много гастролирует и записывает синглы на Motorcity и Ardent records. С 2008 года Кэмерон плодотворно работает с reggae-группой Dub Nation, с которой он выпустил в 2012 году совместный альбом Rising Force for Change. Он по-прежнему гастролирует по всей стране, и исполняет как новые песни, так и проверенные временем свои старые хиты.
Приватный:
Нет (DHT включён)
Размер:
1.18 Гб (1,263,616,311 байт) » файлов: 77
Участники:
0 раздают, 0 качают (0 участников всего)
Внешние участники:
5 раздают, 1 качают (6 участников всего) [ Обновить ]
Есть вопросы - пишите личное сообщение пользователю M0p94ok.
05:57
54
Нет комментариев. Ваш будет первым!