Поиск

(Soul, R&B) [CD] Phyllis Hyman - You Know How To Love Me (1979) - 1999, FLAC (tracks+.cue), lossless

(Soul, R&B) [CD] Phyllis Hyman - You Know How To Love Me (1979) - 1999, FLAC (tracks+.cue), lossless
Треклист:
Phyllis Hyman - You Know How To Love Me (1979) Жанр: Soul, R&B
Носитель: CD
Страна-производитель диска: Japan
Год издания: 1999
Издатель (лейбл): Arista/BMG Japan
Номер по каталогу: BVCM-35043
Аудиокодек: FLAC (*.flac)
Тип рипа: tracks+.cue
Битрейт аудио: lossless
Продолжительность: 42:26
Rip by JET 1
Наличие сканов в содержимом раздачи: да
Треклист:
01. You Know How To Love Me (7:33)
02. Some Way (5:11)
03. Under Your Spell (4:38)
04. This Feeling Must Be Love (3:46)
05. But I Love You (3:05)
06. Heavenly (4:30)
07. Hold On (4:12)
08. Give A Little More (4:07)
09. Complete Me (5:24)
 
 
Лог создания рипа
Exact Audio Copy V1.0 beta 3 from 29. August 2011
EAC extraction logfile from 20. May 2015, 21:58
Phyllis Hyman / You Know How To Love Me
Used drive : ATAPI DVD A DH16A6L-C Adapter: 2 ID: 0
Read mode : Secure
Utilize accurate stream : Yes
Defeat audio cache : Yes
Make use of C2 pointers : No
Read offset correction : 6
Overread into Lead-In and Lead-Out : No
Fill up missing offset samples with silence : Yes
Delete leading and trailing silent blocks : No
Null samples used in CRC calculations : Yes
Used interface : Native Win32 interface for Win NT & 2000
Gap handling : Appended to previous track
Used output format : User Defined Encoder
Selected bitrate : 1024 kBit/s
Quality : High
Add ID3 tag : No
Command line compressor : C:\Program Files\FLAC\flac.exe
Additional command line options : -8 -V -T "ARTIST=%artist%" -T "TITLE=%title%" -T "ALBUM=%albumtitle%" -T "DATE=%year%" -T "TRACKNUMBER=%tracknr%" -T "GENRE=%genre%" -T "PERFORMER=%albuminterpret%" -T "COMPOSER=%composer%" %haslyrics%--tag-from-file=LYRICS="%lyricsfile%"%haslyrics% -T "ALBUMARTIST=%albumartist%" -T "DISCNUMBER=%cdnumber%" -T "TOTALDISCS=%totalcds%" -T "TOTALTRACKS=%numtracks%" -T "COMMENT=%comment%" %source% -o %dest%
TOC of the extracted CD
Track | Start | Length | Start sector | End sector
---------------------------------------------------------
1 | 0:00.00 | 7:33.27 | 0 | 34001
2 | 7:33.27 | 5:11.15 | 34002 | 57341
3 | 12:44.42 | 4:37.48 | 57342 | 78164
4 | 17:22.15 | 3:46.22 | 78165 | 95136
5 | 21:08.37 | 3:04.43 | 95137 | 108979
6 | 24:13.05 | 4:29.57 | 108980 | 129211
7 | 28:42.62 | 4:12.20 | 129212 | 148131
8 | 32:55.07 | 4:07.13 | 148132 | 166669
9 | 37:02.20 | 5:23.42 | 166670 | 190936
Track 1
Filename F:\MUSIC\0\POSTS\Phyllis Hyman - You Know How To Love Me (1979) [1999 Japan]\01 - You Know How To Love Me.wav
Pre-gap length 0:00:02.00
Peak level 97.9 %
Extraction speed 3.6 X
Track quality 100.0 %
Test CRC D457424B
Copy CRC D457424B
Track not present in AccurateRip database
Copy OK
Track 2
Filename F:\MUSIC\0\POSTS\Phyllis Hyman - You Know How To Love Me (1979) [1999 Japan]\02 - Some Way.wav
Pre-gap length 0:00:00.69
Peak level 97.9 %
Extraction speed 4.2 X
Track quality 100.0 %
Test CRC 222D4202
Copy CRC 222D4202
Track not present in AccurateRip database
Copy OK
Track 3
Filename F:\MUSIC\0\POSTS\Phyllis Hyman - You Know How To Love Me (1979) [1999 Japan]\03 - Under Your Spell.wav
Pre-gap length 0:00:01.39
Peak level 97.9 %
Extraction speed 4.5 X
Track quality 100.0 %
Test CRC A4B49EC2
Copy CRC A4B49EC2
Track not present in AccurateRip database
Copy OK
Track 4
Filename F:\MUSIC\0\POSTS\Phyllis Hyman - You Know How To Love Me (1979) [1999 Japan]\04 - This Feeling Must Be Love.wav
Pre-gap length 0:00:00.64
Peak level 97.9 %
Extraction speed 4.6 X
Track quality 100.0 %
Test CRC 5F8F5241
Copy CRC 5F8F5241
Track not present in AccurateRip database
Copy OK
Track 5
Filename F:\MUSIC\0\POSTS\Phyllis Hyman - You Know How To Love Me (1979) [1999 Japan]\05 - But I Love You.wav
Pre-gap length 0:00:02.54
Peak level 99.9 %
Extraction speed 3.6 X
Track quality 99.9 %
Test CRC DC9987C2
Copy CRC DC9987C2
Track not present in AccurateRip database
Copy OK
Track 6
Filename F:\MUSIC\0\POSTS\Phyllis Hyman - You Know How To Love Me (1979) [1999 Japan]\06 - Heavenly.wav
Pre-gap length 0:00:00.72
Peak level 97.9 %
Extraction speed 5.1 X
Track quality 100.0 %
Test CRC 2ACF428D
Copy CRC 2ACF428D
Track not present in AccurateRip database
Copy OK
Track 7
Filename F:\MUSIC\0\POSTS\Phyllis Hyman - You Know How To Love Me (1979) [1999 Japan]\07 - Hold On.wav
Peak level 99.6 %
Extraction speed 5.4 X
Track quality 100.0 %
Test CRC 470FD0D1
Copy CRC 470FD0D1
Track not present in AccurateRip database
Copy OK
Track 8
Filename F:\MUSIC\0\POSTS\Phyllis Hyman - You Know How To Love Me (1979) [1999 Japan]\08 - Give A Little More.wav
Peak level 97.9 %
Extraction speed 5.5 X
Track quality 100.0 %
Test CRC 3D1C1966
Copy CRC 3D1C1966
Track not present in AccurateRip database
Copy OK
Track 9
Filename F:\MUSIC\0\POSTS\Phyllis Hyman - You Know How To Love Me (1979) [1999 Japan]\09 - Complete Me.wav
Pre-gap length 0:00:02.44
Peak level 99.9 %
Extraction speed 6.1 X
Track quality 100.0 %
Test CRC 3A57FC08
Copy CRC 3A57FC08
Track not present in AccurateRip database
Copy OK
None of the tracks are present in the AccurateRip database
No errors occurred
End of status report
==== Log checksum 7F7C3B3A8D63DD3C3CFDA9A46D486F510DB01350D4F3E2C01E90810D0132A59D ====
 
Содержание индексной карты (.CUE)
REM GENRE Soul
REM DATE 1979
REM DISCID 7509F109
REM COMMENT "ExactAudioCopy v1.0b3"
PERFORMER "Phyllis Hyman"
TITLE "You Know How To Love Me"
FILE "01 - You Know How To Love Me.wav" WAVE
TRACK 01 AUDIO
TITLE "You Know How To Love Me"
PERFORMER "Phyllis Hyman"
INDEX 01 00:00:00
TRACK 02 AUDIO
TITLE "Some Way"
PERFORMER "Phyllis Hyman"
INDEX 00 07:32:33
FILE "02 - Some Way.wav" WAVE
INDEX 01 00:00:00
TRACK 03 AUDIO
TITLE "Under Your Spell"
PERFORMER "Phyllis Hyman"
INDEX 00 05:09:51
FILE "03 - Under Your Spell.wav" WAVE
INDEX 01 00:00:00
TRACK 04 AUDIO
TITLE "This Feeling Must Be Love"
PERFORMER "Phyllis Hyman"
INDEX 00 04:36:59
FILE "04 - This Feeling Must Be Love.wav" WAVE
INDEX 01 00:00:00
TRACK 05 AUDIO
TITLE "But I Love You"
PERFORMER "Phyllis Hyman"
INDEX 00 03:43:43
FILE "05 - But I Love You.wav" WAVE
INDEX 01 00:00:00
TRACK 06 AUDIO
TITLE "Heavenly"
PERFORMER "Phyllis Hyman"
INDEX 00 03:03:46
FILE "06 - Heavenly.wav" WAVE
INDEX 01 00:00:00
FILE "07 - Hold On.wav" WAVE
TRACK 07 AUDIO
TITLE "Hold On"
PERFORMER "Phyllis Hyman"
INDEX 01 00:00:00
FILE "08 - Give A Little More.wav" WAVE
TRACK 08 AUDIO
TITLE "Give A Little More"
PERFORMER "Phyllis Hyman"
INDEX 01 00:00:00
TRACK 09 AUDIO
TITLE "Complete Me"
PERFORMER "Phyllis Hyman"
INDEX 00 04:04:44
FILE "09 - Complete Me.wav" WAVE
INDEX 01 00:00:00
Приватный:
Нет (DHT включён)
Размер:
399.55 Мб (418,957,903 байт) » файлов: 26
Участники:
0 раздают, 0 качают (0 участников всего)
Внешние участники:
2 раздают, 1 качают (3 участников всего) [ Обновить ]
Есть вопросы - пишите личное сообщение пользователю M0p94ok.
09:12
70
Нет комментариев. Ваш будет первым!