Поиск

(Soul, R&B) [CD] Phyllis Hyman - Somewhere In My Lifetime (1978) - 1999, FLAC (tracks+.cue), lossless

(Soul, R&B) [CD] Phyllis Hyman - Somewhere In My Lifetime (1978) - 1999, FLAC (tracks+.cue), lossless
Треклист:
Phyllis Hyman - Somewhere In My Lifetime (1978) Жанр: Soul, R&B
Носитель: CD
Страна-производитель диска: Japan
Год издания: 1999
Издатель (лейбл): Arista/BMG Japan
Номер по каталогу: BVCM-35042
Аудиокодек: FLAC (*.flac)
Тип рипа: tracks+.cue
Битрейт аудио: lossless
Продолжительность: 42:45
Rip by JET 1
Наличие сканов в содержимом раздачи: да
Треклист:
01. Kiss You All Over (5:14)
02. Somewhere In My Lifetime (3:30)
03. Lookin' For A Lovin (2:59)
04. The Answer Is You (5:09)
05. So Strange (4:41)
06. Gonna Make Changes (3:59)
07. Living Inside Your Love (6:15)
08. Be Careful (How You Treat My Love) (4:19)
09. Soon Come Again (3:37)
10. Here's That Rainy Day (3:03)
 
 
Лог создания рипа
Exact Audio Copy V1.0 beta 3 from 29. August 2011
EAC extraction logfile from 21. May 2015, 9:48
Phyllis Hyman / Somewhere In My Lifetime
Used drive : ATAPI DVD A DH16A6L-C Adapter: 2 ID: 0
Read mode : Secure
Utilize accurate stream : Yes
Defeat audio cache : Yes
Make use of C2 pointers : No
Read offset correction : 6
Overread into Lead-In and Lead-Out : No
Fill up missing offset samples with silence : Yes
Delete leading and trailing silent blocks : No
Null samples used in CRC calculations : Yes
Used interface : Native Win32 interface for Win NT & 2000
Gap handling : Appended to previous track
Used output format : User Defined Encoder
Selected bitrate : 1024 kBit/s
Quality : High
Add ID3 tag : No
Command line compressor : C:\Program Files\FLAC\flac.exe
Additional command line options : -8 -V -T "ARTIST=%artist%" -T "TITLE=%title%" -T "ALBUM=%albumtitle%" -T "DATE=%year%" -T "TRACKNUMBER=%tracknr%" -T "GENRE=%genre%" -T "PERFORMER=%albuminterpret%" -T "COMPOSER=%composer%" %haslyrics%--tag-from-file=LYRICS="%lyricsfile%"%haslyrics% -T "ALBUMARTIST=%albumartist%" -T "DISCNUMBER=%cdnumber%" -T "TOTALDISCS=%totalcds%" -T "TOTALTRACKS=%numtracks%" -T "COMMENT=%comment%" %source% -o %dest%
TOC of the extracted CD
Track | Start | Length | Start sector | End sector
---------------------------------------------------------
1 | 0:00.00 | 5:14.17 | 0 | 23566
2 | 5:14.17 | 3:30.28 | 23567 | 39344
3 | 8:44.45 | 2:58.45 | 39345 | 52739
4 | 11:43.15 | 5:09.07 | 52740 | 75921
5 | 16:52.22 | 4:40.70 | 75922 | 96991
6 | 21:33.17 | 3:58.38 | 96992 | 114879
7 | 25:31.55 | 6:14.62 | 114880 | 142991
8 | 31:46.42 | 4:18.50 | 142992 | 162391
9 | 36:05.17 | 3:36.43 | 162392 | 178634
10 | 39:41.60 | 3:02.72 | 178635 | 192356
Track 1
Filename F:\MUSIC\0\POSTS\Phyllis Hyman - Somewhere In My Lifetime (1978) [1999 Japan]\01 - Kiss You All Over.wav
Pre-gap length 0:00:02.00
Peak level 99.9 %
Extraction speed 3.4 X
Track quality 100.0 %
Test CRC DA59BF73
Copy CRC DA59BF73
Accurately ripped (confidence 1) [9EFFFA49] (AR v1)
Copy OK
Track 2
Filename F:\MUSIC\0\POSTS\Phyllis Hyman - Somewhere In My Lifetime (1978) [1999 Japan]\02 - Somewhere In My Lifetime.wav
Pre-gap length 0:00:04.34
Peak level 97.9 %
Extraction speed 3.8 X
Track quality 100.0 %
Test CRC E74D539E
Copy CRC E74D539E
Accurately ripped (confidence 1) [D9EA3E95] (AR v1)
Copy OK
Track 3
Filename F:\MUSIC\0\POSTS\Phyllis Hyman - Somewhere In My Lifetime (1978) [1999 Japan]\03 - Lookin' For A Lovin.wav
Pre-gap length 0:00:02.12
Peak level 99.1 %
Extraction speed 3.0 X
Track quality 99.9 %
Test CRC 44C16B91
Copy CRC 44C16B91
Accurately ripped (confidence 1) [510A94C1] (AR v1)
Copy OK
Track 4
Filename F:\MUSIC\0\POSTS\Phyllis Hyman - Somewhere In My Lifetime (1978) [1999 Japan]\04 - The Answer Is You.wav
Pre-gap length 0:00:02.69
Peak level 99.3 %
Extraction speed 3.8 X
Track quality 99.9 %
Test CRC 4BE01C77
Copy CRC 4BE01C77
Accurately ripped (confidence 1) [6BDDB602] (AR v1)
Copy OK
Track 5
Filename F:\MUSIC\0\POSTS\Phyllis Hyman - Somewhere In My Lifetime (1978) [1999 Japan]\05 - So Strange.wav
Pre-gap length 0:00:02.29
Peak level 94.4 %
Extraction speed 4.8 X
Track quality 100.0 %
Test CRC 870D47A7
Copy CRC 870D47A7
Accurately ripped (confidence 1) [9E3D8FD8] (AR v1)
Copy OK
Track 6
Filename F:\MUSIC\0\POSTS\Phyllis Hyman - Somewhere In My Lifetime (1978) [1999 Japan]\06 - Gonna Make Changes.wav
Pre-gap length 0:00:03.29
Peak level 98.9 %
Extraction speed 4.8 X
Track quality 100.0 %
Test CRC FAEFD1DE
Copy CRC FAEFD1DE
Accurately ripped (confidence 1) [F1DB86F1] (AR v1)
Copy OK
Track 7
Filename F:\MUSIC\0\POSTS\Phyllis Hyman - Somewhere In My Lifetime (1978) [1999 Japan]\07 - Living Inside Your Love.wav
Pre-gap length 0:00:02.44
Peak level 94.6 %
Extraction speed 4.6 X
Track quality 99.9 %
Test CRC 4BFF6BCF
Copy CRC 4BFF6BCF
Accurately ripped (confidence 1) [01701B70] (AR v1)
Copy OK
Track 8
Filename F:\MUSIC\0\POSTS\Phyllis Hyman - Somewhere In My Lifetime (1978) [1999 Japan]\08 - Be Careful (How You Treat My Love).wav
Pre-gap length 0:00:02.56
Peak level 99.9 %
Extraction speed 5.6 X
Track quality 100.0 %
Test CRC 1BFB43F4
Copy CRC 1BFB43F4
Accurately ripped (confidence 1) [CFAED8BD] (AR v1)
Copy OK
Track 9
Filename F:\MUSIC\0\POSTS\Phyllis Hyman - Somewhere In My Lifetime (1978) [1999 Japan]\09 - Soon Come Again.wav
Pre-gap length 0:00:02.54
Peak level 99.9 %
Extraction speed 5.5 X
Track quality 100.0 %
Test CRC 9C35D03E
Copy CRC 9C35D03E
Accurately ripped (confidence 1) [D19D1AAB] (AR v1)
Copy OK
Track 10
Filename F:\MUSIC\0\POSTS\Phyllis Hyman - Somewhere In My Lifetime (1978) [1999 Japan]\10 - Here's That Rainy Day.wav
Pre-gap length 0:00:02.67
Peak level 99.9 %
Extraction speed 4.4 X
Track quality 99.9 %
Test CRC 4B071980
Copy CRC 4B071980
Accurately ripped (confidence 1) [05142C1B] (AR v1)
Copy OK
All tracks accurately ripped
No errors occurred
End of status report
==== Log checksum 971AFC56EFC419965BF117D73A32A59A5A3FD3A1B70415CF601F92C37AF98D78 ====
 
Содержание индексной карты (.CUE)
REM GENRE Soul
REM DATE 1978
REM DISCID 7A0A040A
REM COMMENT "ExactAudioCopy v1.0b3"
PERFORMER "Phyllis Hyman"
TITLE "Somewhere In My Lifetime"
FILE "01 - Kiss You All Over.wav" WAVE
TRACK 01 AUDIO
TITLE "Kiss You All Over"
PERFORMER "Phyllis Hyman"
INDEX 01 00:00:00
TRACK 02 AUDIO
TITLE "Somewhere In My Lifetime"
PERFORMER "Phyllis Hyman"
INDEX 00 05:09:58
FILE "02 - Somewhere In My Lifetime.wav" WAVE
INDEX 01 00:00:00
TRACK 03 AUDIO
TITLE "Lookin' For A Lovin"
PERFORMER "Phyllis Hyman"
INDEX 00 03:28:16
FILE "03 - Lookin' For A Lovin.wav" WAVE
INDEX 01 00:00:00
TRACK 04 AUDIO
TITLE "The Answer Is You"
PERFORMER "Phyllis Hyman"
INDEX 00 02:55:51
FILE "04 - The Answer Is You.wav" WAVE
INDEX 01 00:00:00
TRACK 05 AUDIO
TITLE "So Strange"
PERFORMER "Phyllis Hyman"
INDEX 00 05:06:53
FILE "05 - So Strange.wav" WAVE
INDEX 01 00:00:00
TRACK 06 AUDIO
TITLE "Gonna Make Changes"
PERFORMER "Phyllis Hyman"
INDEX 00 04:37:41
FILE "06 - Gonna Make Changes.wav" WAVE
INDEX 01 00:00:00
TRACK 07 AUDIO
TITLE "Living Inside Your Love"
PERFORMER "Phyllis Hyman"
INDEX 00 03:55:69
FILE "07 - Living Inside Your Love.wav" WAVE
INDEX 01 00:00:00
TRACK 08 AUDIO
TITLE "Be Careful (How You Treat My Love)"
PERFORMER "Phyllis Hyman"
INDEX 00 06:12:06
FILE "08 - Be Careful (How You Treat My Love).wav" WAVE
INDEX 01 00:00:00
TRACK 09 AUDIO
TITLE "Soon Come Again"
PERFORMER "Phyllis Hyman"
INDEX 00 04:15:71
FILE "09 - Soon Come Again.wav" WAVE
INDEX 01 00:00:00
TRACK 10 AUDIO
TITLE "Here's That Rainy Day"
PERFORMER "Phyllis Hyman"
INDEX 00 03:33:51
FILE "10 - Here's That Rainy Day.wav" WAVE
INDEX 01 00:00:00
Приватный:
Нет (DHT включён)
Размер:
392.57 Мб (411,638,133 байт) » файлов: 28
Участники:
0 раздают, 0 качают (0 участников всего)
Внешние участники:
2 раздают, 1 качают (3 участников всего) [ Обновить ]
Есть вопросы - пишите личное сообщение пользователю M0p94ok.
09:11
67
Нет комментариев. Ваш будет первым!