Поиск

(Funk, Soul, R&B) [CD] Phyllis Hyman - Can't We Fall In Love Again (1981) - 1999, FLAC (tracks+.cue), lossless

(Funk, Soul, R&B) [CD] Phyllis Hyman - Can't We Fall In Love Again (1981) - 1999, FLAC (tracks+.cue), lossless
Треклист:
Phyllis Hyman - Can't We Fall In Love Again (1981) Жанр: Funk, Soul, R&B
Носитель: CD
Страна-производитель диска: Japan
Год издания: 1999
Издатель (лейбл): Arista/BMG Japan
Номер по каталогу: BVCM-35044
Аудиокодек: FLAC (*.flac)
Тип рипа: tracks+.cue
Битрейт аудио: lossless
Продолжительность: 36:11
Rip by JET 1
Наличие сканов в содержимом раздачи: да
Треклист:
01. You Sure Look Good To Me (4:20)
02. Don't Tell Me, Tell Her (4:19)
03. I Ain't Asking (4:03)
04. Can't We Fall In Love Again (5:17)
05. The Love Too Good To Last (4:07)
06. Tonight You And Me (3:45)
07. The Sunshine In My Life (4:27)
08. Just Another Face In The Crowd (5:52)
 
 
Лог создания рипа
Exact Audio Copy V1.0 beta 3 from 29. August 2011
EAC extraction logfile from 21. May 2015, 11:31
Phyllis Hyman / Can't We Fall In Love Again
Used drive : ATAPI DVD A DH16A6L-C Adapter: 2 ID: 0
Read mode : Secure
Utilize accurate stream : Yes
Defeat audio cache : Yes
Make use of C2 pointers : No
Read offset correction : 6
Overread into Lead-In and Lead-Out : No
Fill up missing offset samples with silence : Yes
Delete leading and trailing silent blocks : No
Null samples used in CRC calculations : Yes
Used interface : Native Win32 interface for Win NT & 2000
Gap handling : Appended to previous track
Used output format : User Defined Encoder
Selected bitrate : 1024 kBit/s
Quality : High
Add ID3 tag : No
Command line compressor : C:\Program Files\FLAC\flac.exe
Additional command line options : -8 -V -T "ARTIST=%artist%" -T "TITLE=%title%" -T "ALBUM=%albumtitle%" -T "DATE=%year%" -T "TRACKNUMBER=%tracknr%" -T "GENRE=%genre%" -T "PERFORMER=%albuminterpret%" -T "COMPOSER=%composer%" %haslyrics%--tag-from-file=LYRICS="%lyricsfile%"%haslyrics% -T "ALBUMARTIST=%albumartist%" -T "DISCNUMBER=%cdnumber%" -T "TOTALDISCS=%totalcds%" -T "TOTALTRACKS=%numtracks%" -T "COMMENT=%comment%" %source% -o %dest%
TOC of the extracted CD
Track | Start | Length | Start sector | End sector
---------------------------------------------------------
1 | 0:00.00 | 4:20.00 | 0 | 19499
2 | 4:20.00 | 4:18.65 | 19500 | 38914
3 | 8:38.65 | 4:02.65 | 38915 | 57129
4 | 12:41.55 | 5:17.27 | 57130 | 80931
5 | 17:59.07 | 4:06.58 | 80932 | 99439
6 | 22:05.65 | 3:45.37 | 99440 | 116351
7 | 25:51.27 | 4:27.35 | 116352 | 136411
8 | 30:18.62 | 5:52.23 | 136412 | 162834
Track 1
Filename F:\MUSIC\0\POSTS\Phyllis Hyman - Can't We Fall In Love Again (1981) [1999 Japan]\01 - You Sure Look Good To Me.wav
Pre-gap length 0:00:02.00
Peak level 97.9 %
Extraction speed 3.4 X
Track quality 100.0 %
Test CRC F8A7FE7A
Copy CRC F8A7FE7A
Accurately ripped (confidence 1) [9DCC8800] (AR v2)
Copy OK
Track 2
Filename F:\MUSIC\0\POSTS\Phyllis Hyman - Can't We Fall In Love Again (1981) [1999 Japan]\02 - Don't Tell Me, Tell Her.wav
Peak level 97.9 %
Extraction speed 3.8 X
Track quality 100.0 %
Test CRC 51ABD6D0
Copy CRC 51ABD6D0
Accurately ripped (confidence 1) [7AD1C4E3] (AR v2)
Copy OK
Track 3
Filename F:\MUSIC\0\POSTS\Phyllis Hyman - Can't We Fall In Love Again (1981) [1999 Japan]\03 - I Ain't Asking.wav
Peak level 97.9 %
Extraction speed 4.0 X
Track quality 100.0 %
Test CRC 7D323C85
Copy CRC 7D323C85
Accurately ripped (confidence 1) [A05EA4FA] (AR v2)
Copy OK
Track 4
Filename F:\MUSIC\0\POSTS\Phyllis Hyman - Can't We Fall In Love Again (1981) [1999 Japan]\04 - Can't We Fall In Love Again.wav
Peak level 97.9 %
Extraction speed 3.9 X
Track quality 99.9 %
Test CRC FD4E0174
Copy CRC FD4E0174
Accurately ripped (confidence 1) [A767F18E] (AR v2)
Copy OK
Track 5
Filename F:\MUSIC\0\POSTS\Phyllis Hyman - Can't We Fall In Love Again (1981) [1999 Japan]\05 - The Love Too Good To Last.wav
Peak level 95.7 %
Extraction speed 4.7 X
Track quality 100.0 %
Test CRC C3BCCD89
Copy CRC C3BCCD89
Accurately ripped (confidence 1) [2575AB93] (AR v2)
Copy OK
Track 6
Filename F:\MUSIC\0\POSTS\Phyllis Hyman - Can't We Fall In Love Again (1981) [1999 Japan]\06 - Tonight You And Me.wav
Peak level 97.9 %
Extraction speed 5.0 X
Track quality 100.0 %
Test CRC F148D727
Copy CRC F148D727
Accurately ripped (confidence 1) [6B310548] (AR v2)
Copy OK
Track 7
Filename F:\MUSIC\0\POSTS\Phyllis Hyman - Can't We Fall In Love Again (1981) [1999 Japan]\07 - The Sunshine In My Life.wav
Peak level 97.9 %
Extraction speed 5.3 X
Track quality 100.0 %
Test CRC 95E4E9E0
Copy CRC 95E4E9E0
Accurately ripped (confidence 1) [FD0ECAAF] (AR v2)
Copy OK
Track 8
Filename F:\MUSIC\0\POSTS\Phyllis Hyman - Can't We Fall In Love Again (1981) [1999 Japan]\08 - Just Another Face In The Crowd.wav
Peak level 97.9 %
Extraction speed 5.7 X
Track quality 100.0 %
Test CRC F4F1147A
Copy CRC F4F1147A
Accurately ripped (confidence 1) [170C3DD9] (AR v2)
Copy OK
All tracks accurately ripped
No errors occurred
End of status report
==== Log checksum 8AF4F1B0E84370F7667B9230B22B30C1E41699193378E2F8FC4C1BDB5E50DC04 ====
 
Содержание индексной карты (.CUE)
REM GENRE Funk
REM DATE 1981
REM DISCID 53087B08
REM COMMENT "ExactAudioCopy v1.0b3"
PERFORMER "Phyllis Hyman"
TITLE "Can't We Fall In Love Again"
FILE "01 - You Sure Look Good To Me.wav" WAVE
TRACK 01 AUDIO
TITLE "You Sure Look Good To Me"
PERFORMER "Phyllis Hyman"
INDEX 01 00:00:00
FILE "02 - Don't Tell Me, Tell Her.wav" WAVE
TRACK 02 AUDIO
TITLE "Don't Tell Me, Tell Her"
PERFORMER "Phyllis Hyman"
INDEX 01 00:00:00
FILE "03 - I Ain't Asking.wav" WAVE
TRACK 03 AUDIO
TITLE "I Ain't Asking"
PERFORMER "Phyllis Hyman"
INDEX 01 00:00:00
FILE "04 - Can't We Fall In Love Again.wav" WAVE
TRACK 04 AUDIO
TITLE "Can't We Fall In Love Again"
PERFORMER "Phyllis Hyman"
INDEX 01 00:00:00
FILE "05 - The Love Too Good To Last.wav" WAVE
TRACK 05 AUDIO
TITLE "The Love Too Good To Last"
PERFORMER "Phyllis Hyman"
INDEX 01 00:00:00
FILE "06 - Tonight You And Me.wav" WAVE
TRACK 06 AUDIO
TITLE "Tonight You And Me"
PERFORMER "Phyllis Hyman"
INDEX 01 00:00:00
FILE "07 - The Sunshine In My Life.wav" WAVE
TRACK 07 AUDIO
TITLE "The Sunshine In My Life"
PERFORMER "Phyllis Hyman"
INDEX 01 00:00:00
FILE "08 - Just Another Face In The Crowd.wav" WAVE
TRACK 08 AUDIO
TITLE "Just Another Face In The Crowd"
PERFORMER "Phyllis Hyman"
INDEX 01 00:00:00
Приватный:
Нет (DHT включён)
Размер:
375.84 Мб (394,100,227 байт) » файлов: 25
Участники:
0 раздают, 0 качают (0 участников всего)
Внешние участники:
2 раздают, 1 качают (3 участников всего) [ Обновить ]
Есть вопросы - пишите личное сообщение пользователю M0p94ok.
09:13
59
Нет комментариев. Ваш будет первым!