Поиск

(Soul, R&B) [CD] Percy Sledge - When A Man Loves A Woman - 2002, FLAC (image+.cue), lossless

(Soul, R&B) [CD] Percy Sledge - When A Man Loves A Woman - 2002, FLAC (image+.cue), lossless
Треклист:
Percy Sledge - When A Man Loves A Woman
Жанр: Soul, R&B
Носитель: CD
Год издания: 2002
Издатель (лейбл): CEDAR
Номер по каталогу: GFS304
Аудиокодек: FLAC (*.flac)
Тип рипа: image+.cue
Битрейт аудио: lossless
Продолжительность: 31:54
Rip by Erik
Наличие сканов в содержимом раздачи: да
Треклист:
01. When A Man Loves A Woman (2:50)
02. My Special Prayer (3:00)
03. Warm And Tender Love (3:20)
04. My Adorable One (2:42)
05. Take Time To Know Her (2:59)
06. Thief In The Night (2:18)
07. Out Of Left Field (3:24)
08. It Tears Me Up (2:48)
09. You're Pouring Water On A Drowning Man (2:20)
10. Just Out Of Reach (3:31)
11. Cover Me (2:42)
 
Лог создания рипа
Exact Audio Copy V1.0 beta 4 from 7. December 2014
Отчёт EAC об извлечении, выполненном 8. июля 2015, 9:00
Percy Sledge / When A Man Loves A Woman
Дисковод: ASUS DRW-24F1ST a Adapter: 1 ID: 0
Режим чтения : Достоверность
Использование точного потока : Да
Отключение кэша аудио : Да
Использование указателей C2 : Нет
Коррекция смещения при чтении : 6
Способность читать области Lead-in и Lead-out : Нет
Заполнение пропущенных сэмплов тишиной : Да
Удаление блоков с тишиной в начале и конце : Нет
При вычислениях CRC использовались нулевые сэмплы : Да
Интерфейс : Встроенный Win32-интерфейс для Win NT/2000
Выходной формат : Пользовательский кодировщик
Выбранный битрейт : 128 kBit/s
Качество : Высокий
Добавление ID3-тега : Нет
Утилита сжатия : C:\Program Files\Exact Audio Copy\Flac\flac.exe
Дополнительные параметры : -V -8 -T "Date=%year%" -T "Genre=%genre%" %source%
TOC извлечённого CD
Трек | Старт | Длительность | Начальный сектор | Конечный сектор
---------------------------------------------------------------------
1 | 0:00.00 | 2:50.25 | 0 | 12774
2 | 2:50.25 | 3:00.10 | 12775 | 26284
3 | 5:50.35 | 3:20.00 | 26285 | 41284
4 | 9:10.35 | 2:41.47 | 41285 | 53406
5 | 11:52.07 | 2:58.48 | 53407 | 66804
6 | 14:50.55 | 2:18.35 | 66805 | 77189
7 | 17:09.15 | 3:23.55 | 77190 | 92469
8 | 20:32.70 | 2:47.62 | 92470 | 105056
9 | 23:20.57 | 2:19.63 | 105057 | 115544
10 | 25:40.45 | 3:31.17 | 115545 | 131386
11 | 29:11.62 | 2:42.15 | 131387 | 143551
Характеристики диапазона извлечения и сообщения об ошибках
Выбранный диапазон
Имя файла C:\Users\Erik\Desktop\Percy Sledge - When A Man Loves A Woman.wav
Пиковый уровень 99.1 %
Скорость извлечения 2.5 X
Качество диапазона 100.0 %
CRC теста 444E8EB8
CRC копии 444E8EB8
Копирование... OK
Ошибок не произошло
AccurateRip: сводка
Трек 1 : извлечено точно (доверие 1) [BE40074E] (AR v2)
Трек 2 : извлечено точно (доверие 1) [1A011465] (AR v2)
Трек 3 : извлечено точно (доверие 1) [4419F799] (AR v2)
Трек 4 : извлечено точно (доверие 1) [3730C484] (AR v2)
Трек 5 : извлечено точно (доверие 1) [69BB3E12] (AR v2)
Трек 6 : извлечено точно (доверие 1) [CAAD3ED3] (AR v2)
Трек 7 : извлечено точно (доверие 1) [0845B07A] (AR v2)
Трек 8 : извлечено точно (доверие 1) [13CE3A60] (AR v2)
Трек 9 : извлечено точно (доверие 1) [5D0E37E8] (AR v2)
Трек 10 : извлечено точно (доверие 1) [951C1F07] (AR v2)
Трек 11 : извлечено точно (доверие 1) [4EF59DFC] (AR v2)
Все треки извлечены точно
Конец отчёта
---- CUETools DB Plugin V2.1.4
[CTDB TOCID: XZ.bntqYXN5hkl9kJ1N9_3ZyZA8-] disk not present in database
Submit result: XZ.bntqYXN5hkl9kJ1N9_3ZyZA8- has been uploaded
==== Контрольная сумма отчёта C8E875CFF276CEB9B8FE442C6F8F4241D65A8F9BDD707FACE481B136BDED2674 ====
 
Содержание индексной карты (.CUE)
REM GENRE Soul
REM DATE 2002
REM DISCID 73077A0B
REM COMMENT "ExactAudioCopy v1.0b4"
PERFORMER "Percy Sledge"
TITLE "When A Man Loves A Woman"
FILE "Percy Sledge - When A Man Loves A Woman.flac" WAVE
TRACK 01 AUDIO
TITLE "When A Man Loves A Woman"
PERFORMER "Percy Sledge"
INDEX 01 00:00:00
TRACK 02 AUDIO
TITLE "My Special Prayer"
PERFORMER "Percy Sledge"
INDEX 00 02:49:22
INDEX 01 02:50:25
TRACK 03 AUDIO
TITLE "Warm And Tender Love"
PERFORMER "Percy Sledge"
INDEX 00 05:49:30
INDEX 01 05:50:35
TRACK 04 AUDIO
TITLE "My Adorable One"
PERFORMER "Percy Sledge"
INDEX 00 09:09:32
INDEX 01 09:10:35
TRACK 05 AUDIO
TITLE "Take Time To Know Her"
PERFORMER "Percy Sledge"
INDEX 00 11:51:05
INDEX 01 11:52:07
TRACK 06 AUDIO
TITLE "Thief In The Night"
PERFORMER "Percy Sledge"
INDEX 00 14:49:52
INDEX 01 14:50:55
TRACK 07 AUDIO
TITLE "Out Of Left Field"
PERFORMER "Percy Sledge"
INDEX 00 17:08:12
INDEX 01 17:09:15
TRACK 08 AUDIO
TITLE "It Tears Me Up"
PERFORMER "Percy Sledge"
INDEX 00 20:31:67
INDEX 01 20:32:70
TRACK 09 AUDIO
TITLE "You're Pouring Water On A Drowning Man"
PERFORMER "Percy Sledge"
INDEX 00 23:19:55
INDEX 01 23:20:57
TRACK 10 AUDIO
TITLE "Just Out Of Reach"
PERFORMER "Percy Sledge"
INDEX 00 25:39:42
INDEX 01 25:40:45
TRACK 11 AUDIO
TITLE "Cover Me"
PERFORMER "Percy Sledge"
INDEX 00 29:10:60
INDEX 01 29:11:62
Приватный:
Нет (DHT включён)
Размер:
167.76 Мб (175,914,208 байт) » файлов: 9
Участники:
0 раздают, 0 качают (0 участников всего)
Внешние участники:
2 раздают, 1 качают (3 участников всего) [ Обновить ]
Есть вопросы - пишите личное сообщение пользователю M0p94ok.
06:59
67
Нет комментариев. Ваш будет первым!