Поиск

(Funk) [CD] Baby Charles - Baby Charles - 2007, FLAC (tracks+.cue), lossless

(Funk) [CD] Baby Charles - Baby Charles - 2007, FLAC (tracks+.cue), lossless
Треклист:
Baby Charles / Baby Charles
Жанр: Funk
Носитель: CD
Страна-производитель диска (релиза): Italy
Год издания: 2007
Издатель (лейбл): Record Kicks
Номер по каталогу: RKX020
Страна исполнителя (группы): UK
Аудиокодек: FLAC (*.flac)
Тип рипа: tracks+.cue
Битрейт аудио: lossless
Продолжительность: 46:32
Источник (релизер): gssmg7
Наличие сканов в содержимом раздачи: да
Треклист:
01. Treading Water
02. Invisible
03. Comin' From A Higher Place
04. Life's Begun
05. No Controlling Me
06. Hard Man To Please
07. Step On
08. Indecision
09. I Bet You Look Good On The Dancefloor
10. Back Of My Hand
11. This Time
12. Sphinx
http://www.recordkicks.com/artists/BABY-CHARLES
 
Лог создания рипа
Exact Audio Copy V1.0 beta 2 from 29. April 2011
EAC extraction logfile from 8. July 2015, 0:25
Baby Charles / Baby Charles
Used drive : Optiarc DVD RW AD-5280S Adapter: 1 ID: 1
Read mode : Secure
Utilize accurate stream : Yes
Defeat audio cache : Yes
Make use of C2 pointers : No
Read offset correction : 48
Overread into Lead-In and Lead-Out : No
Fill up missing offset samples with silence : Yes
Delete leading and trailing silent blocks : No
Null samples used in CRC calculations : Yes
Used interface : Installed external ASPI interface
Gap handling : Appended to previous track
Used output format : User Defined Encoder
Selected bitrate : 128 kBit/s
Quality : High
Add ID3 tag : No
Command line compressor : C:\Program Files\FLAC\flac.exe
Additional command line options : -V -8 -T "Genre=%genre%" -T "Artist=%artist%" -T "Title=%title%" -T "Album=%albumtitle%" -T "Date=%year%" -T "Tracknumber=%tracknr%" -T "Comment=%comment%" %source%
TOC of the extracted CD
Track | Start | Length | Start sector | End sector
---------------------------------------------------------
1 | 0:00.00 | 4:11.61 | 0 | 18885
2 | 4:11.61 | 4:38.24 | 18886 | 39759
3 | 8:50.10 | 3:08.63 | 39760 | 53922
4 | 11:58.73 | 4:51.35 | 53923 | 75782
5 | 16:50.33 | 3:52.70 | 75783 | 93252
6 | 20:43.28 | 3:57.10 | 93253 | 111037
7 | 24:40.38 | 2:57.38 | 111038 | 124350
8 | 27:38.01 | 3:39.12 | 124351 | 140787
9 | 31:17.13 | 4:28.03 | 140788 | 160890
10 | 35:45.16 | 4:01.56 | 160891 | 179021
11 | 39:46.72 | 2:57.32 | 179022 | 192328
12 | 42:44.29 | 3:48.06 | 192329 | 209434
Track 1
Filename C:\Baby Charles (2007) - Baby Charles\01 - Treading Water.wav
Pre-gap length 0:00:02.00
Peak level 98.1 %
Extraction speed 2.4 X
Track quality 100.0 %
Test CRC 6E804D76
Copy CRC 6E804D76
Accurately ripped (confidence 4) [F1A41921] (AR v1)
Copy OK
Track 2
Filename C:\Baby Charles (2007) - Baby Charles\02 - Invisible.wav
Pre-gap length 0:00:02.00
Peak level 98.7 %
Extraction speed 2.8 X
Track quality 100.0 %
Test CRC 21919CC6
Copy CRC 21919CC6
Accurately ripped (confidence 4) [8F8EA628] (AR v1)
Copy OK
Track 3
Filename C:\Baby Charles (2007) - Baby Charles\03 - Coming From A Higher Place.wav
Pre-gap length 0:00:02.00
Peak level 98.2 %
Extraction speed 2.9 X
Track quality 100.0 %
Test CRC BF785795
Copy CRC BF785795
Accurately ripped (confidence 4) [5DCA37CF] (AR v1)
Copy OK
Track 4
Filename C:\Baby Charles (2007) - Baby Charles\04 - Life's Begun.wav
Pre-gap length 0:00:02.00
Peak level 98.1 %
Extraction speed 2.9 X
Track quality 99.9 %
Test CRC A89F8BC9
Copy CRC A89F8BC9
Accurately ripped (confidence 4) [A391AFE2] (AR v1)
Copy OK
Track 5
Filename C:\Baby Charles (2007) - Baby Charles\05 - No Controlling Me.wav
Pre-gap length 0:00:02.00
Peak level 98.8 %
Extraction speed 3.4 X
Track quality 100.0 %
Test CRC BBF7CC60
Copy CRC BBF7CC60
Accurately ripped (confidence 4) [877BA920] (AR v1)
Copy OK
Track 6
Filename C:\Baby Charles (2007) - Baby Charles\06 - Hardman To Please.wav
Pre-gap length 0:00:02.00
Peak level 98.0 %
Extraction speed 3.6 X
Track quality 100.0 %
Test CRC BCD95656
Copy CRC BCD95656
Accurately ripped (confidence 4) [85772902] (AR v1)
Copy OK
Track 7
Filename C:\Baby Charles (2007) - Baby Charles\07 - Step On.wav
Pre-gap length 0:00:02.00
Peak level 97.9 %
Extraction speed 3.6 X
Track quality 100.0 %
Test CRC FF4E9B97
Copy CRC FF4E9B97
Accurately ripped (confidence 4) [63A8CA10] (AR v1)
Copy OK
Track 8
Filename C:\Baby Charles (2007) - Baby Charles\08 - Indecision.wav
Pre-gap length 0:00:02.00
Peak level 97.8 %
Extraction speed 3.9 X
Track quality 100.0 %
Test CRC D9A3E08A
Copy CRC D9A3E08A
Accurately ripped (confidence 4) [EA5E29BF] (AR v1)
Copy OK
Track 9
Filename C:\Baby Charles (2007) - Baby Charles\09 - I Bet You Look Good On The Dancefloor.wav
Pre-gap length 0:00:02.00
Peak level 98.0 %
Extraction speed 4.1 X
Track quality 100.0 %
Test CRC 36334435
Copy CRC 36334435
Accurately ripped (confidence 4) [46AD95E9] (AR v1)
Copy OK
Track 10
Filename C:\Baby Charles (2007) - Baby Charles\10 - Back Of My hand.wav
Pre-gap length 0:00:02.00
Peak level 98.4 %
Extraction speed 4.2 X
Track quality 100.0 %
Test CRC E6955431
Copy CRC E6955431
Accurately ripped (confidence 4) [FA2181E4] (AR v1)
Copy OK
Track 11
Filename C:\Baby Charles (2007) - Baby Charles\11 - This Time.wav
Pre-gap length 0:00:02.00
Peak level 98.2 %
Extraction speed 4.2 X
Track quality 100.0 %
Test CRC B7D8C965
Copy CRC B7D8C965
Accurately ripped (confidence 4) [20A0FFF8] (AR v1)
Copy OK
Track 12
Filename C:\Baby Charles (2007) - Baby Charles\12 - The Sphinx.wav
Pre-gap length 0:00:02.00
Peak level 98.2 %
Extraction speed 3.9 X
Track quality 99.9 %
Test CRC 4683608B
Copy CRC 4683608B
Accurately ripped (confidence 4) [93CA7716] (AR v1)
Copy OK
All tracks accurately ripped
No errors occurred
End of status report
==== Log checksum 0E8FA447BCFDC290E60D6F24F774F851CC744834788B4A4C97DF0C79C8FFC254 ====
 
Содержание индексной карты (.CUE)
REM GENRE Funk
REM DATE 2007
REM DISCID 9A0AE80C
REM COMMENT "ExactAudioCopy v1.0b2"
PERFORMER "Baby Charles"
TITLE "Baby Charles"
FILE "01 - Treading Water.wav" WAVE
TRACK 01 AUDIO
TITLE "Treading Water"
PERFORMER "Baby Charles"
ISRC ITG580700100
INDEX 01 00:00:00
TRACK 02 AUDIO
TITLE "Invisible"
PERFORMER "Baby Charles"
ISRC ITG580700101
INDEX 00 04:09:61
FILE "02 - Invisible.wav" WAVE
INDEX 01 00:00:00
TRACK 03 AUDIO
TITLE "Coming From A Higher Place"
PERFORMER "Baby Charles"
ISRC ITG580700102
INDEX 00 04:36:24
FILE "03 - Coming From A Higher Place.wav" WAVE
INDEX 01 00:00:00
TRACK 04 AUDIO
TITLE "Life's Begun"
PERFORMER "Baby Charles"
ISRC ITG580700103
INDEX 00 03:06:63
FILE "04 - Life's Begun.wav" WAVE
INDEX 01 00:00:00
TRACK 05 AUDIO
TITLE "No Controlling Me"
PERFORMER "Baby Charles"
ISRC ITG580700104
INDEX 00 04:49:35
FILE "05 - No Controlling Me.wav" WAVE
INDEX 01 00:00:00
TRACK 06 AUDIO
TITLE "Hardman To Please"
PERFORMER "Baby Charles"
ISRC ITG580700105
INDEX 00 03:50:70
FILE "06 - Hardman To Please.wav" WAVE
INDEX 01 00:00:00
TRACK 07 AUDIO
TITLE "Step On"
PERFORMER "Baby Charles"
ISRC ITG580700106
INDEX 00 03:55:10
FILE "07 - Step On.wav" WAVE
INDEX 01 00:00:00
TRACK 08 AUDIO
TITLE "Indecision"
PERFORMER "Baby Charles"
ISRC ITG580700107
INDEX 00 02:55:38
FILE "08 - Indecision.wav" WAVE
INDEX 01 00:00:00
TRACK 09 AUDIO
TITLE "I Bet You Look Good On The Dancefloor"
PERFORMER "Baby Charles"
ISRC ITG580700108
INDEX 00 03:37:12
FILE "09 - I Bet You Look Good On The Dancefloor.wav" WAVE
INDEX 01 00:00:00
TRACK 10 AUDIO
TITLE "Back Of My hand"
PERFORMER "Baby Charles"
ISRC ITG580700109
INDEX 00 04:26:03
FILE "10 - Back Of My hand.wav" WAVE
INDEX 01 00:00:00
TRACK 11 AUDIO
TITLE "This Time"
PERFORMER "Baby Charles"
ISRC ITG580700110
INDEX 00 03:59:56
FILE "11 - This Time.wav" WAVE
INDEX 01 00:00:00
TRACK 12 AUDIO
TITLE "The Sphinx"
PERFORMER "Baby Charles"
ISRC ITG580700111
INDEX 00 02:55:32
FILE "12 - The Sphinx.wav" WAVE
INDEX 01 00:00:00
 
Об альбоме (сборнике)
After 3 heavyweight 45s, all of which have found heavy rotation in funk spots around the globe, the Baby Charles album is a delight to behold. Soul diva Dionne Charles delivers her unique, self-penned stunning vocal performance, while the remaining eight lay down the heavy funk grooves. Throughout the 12 tracks, the band display a range of styles which reflect their diverse influences. There's the Latin inspired bass groove in "Treading Water", the Meter's style funk of "Invisible", the James Brown influence on "Hard Man" and "No Controlling Me", there's even some Egyptian Jazz thrown in the mix on the instrumental track "The Sphinx". Moreover, this album includes a funk & afrobeat cover of The Arctic Monkeys "I Bet You Look Good On The Dancefloor" plus a version of DJ Shadows "This Time".
 
Состав
Simon Hill - bass
Alex Kirkwood - drums
Georgina Carroll - flute
Toby Sendall - guitar
Lee Nicklen - keyboards
Oliver Minkley - percussion
Sigi Beare - saxophones
Natasha Gawlinski - tenor saxophone
Will Rumfitt - trombone
Dionne Charles - vocals
Приватный:
Нет (DHT включён)
Размер:
382.73 Мб (401,320,902 байт) » файлов: 21
Участники:
0 раздают, 0 качают (0 участников всего)
Внешние участники:
5 раздают, 1 качают (6 участников всего) [ Обновить ]
Есть вопросы - пишите личное сообщение пользователю M0p94ok.
06:58
75
Нет комментариев. Ваш будет первым!