Поиск

(Soul, Funk) [CD] General Johnson - The Best Of The Arista Years - 2011, FLAC (tracks+.cue), lossless

(Soul, Funk) [CD] General Johnson - The Best Of The Arista Years - 2011, FLAC (tracks+.cue), lossless
Треклист:
General Johnson - The Best Of The Arista Years
Жанр: Soul, Funk
Носитель: CD
Год издания: 2011
Издатель (лейбл): Edsel/Demon
Номер по каталогу: EDSS 1057
Аудиокодек: FLAC (*.flac)
Тип рипа: tracks+.cue
Битрейт аудио: lossless
Продолжительность: 53:38
Rip by JET 1
Наличие сканов в содержимом раздачи: да
Треклист:
01. Temperature Risin' (5:52)
02. Don't Walk Away (4:38)
03. We The People (4:14)
04. Lies (3:10)
05. All In The Family (4:11)
06. Only Love Cand Mend A Broken Heart (3:12)
07. Patches (5:33)
08. Keep Keepin' On (2:58)
09. Don't Walk Away (Special Disco Version) (4:37)
10. Ready Willing And Able (3:28)
11. Let's Fool Around (12'' Version) (6:35)
12. Can't Nobody Love Me Like You Do (12'' Disco Version) (5:11)
 
 
Лог создания рипа
Exact Audio Copy V1.0 beta 3 from 29. August 2011
EAC extraction logfile from 3. July 2015, 17:26
General Johnson / The Best Of The Arista Years
Used drive : GENERIC CDRCB05 Adapter: 4 ID: 0
Read mode : Secure
Utilize accurate stream : Yes
Defeat audio cache : Yes
Make use of C2 pointers : No
Read offset correction : 102
Overread into Lead-In and Lead-Out : No
Fill up missing offset samples with silence : Yes
Delete leading and trailing silent blocks : No
Null samples used in CRC calculations : Yes
Used interface : Native Win32 interface for Win NT & 2000
Gap handling : Appended to previous track
Used output format : User Defined Encoder
Selected bitrate : 1024 kBit/s
Quality : High
Add ID3 tag : No
Command line compressor : C:\Program Files\FLAC\flac.exe
Additional command line options : -8 -V -T "ARTIST=%artist%" -T "TITLE=%title%" -T "ALBUM=%albumtitle%" -T "DATE=%year%" -T "TRACKNUMBER=%tracknr%" -T "GENRE=%genre%" -T "PERFORMER=%albuminterpret%" -T "COMPOSER=%composer%" %haslyrics%--tag-from-file=LYRICS="%lyricsfile%"%haslyrics% -T "ALBUMARTIST=%albumartist%" -T "DISCNUMBER=%cdnumber%" -T "TOTALDISCS=%totalcds%" -T "TOTALTRACKS=%numtracks%" -T "COMMENT=%comment%" %source% -o %dest%
TOC of the extracted CD
Track | Start | Length | Start sector | End sector
---------------------------------------------------------
1 | 0:00.00 | 5:52.33 | 0 | 26432
2 | 5:52.33 | 4:38.03 | 26433 | 47285
3 | 10:30.36 | 4:13.65 | 47286 | 66325
4 | 14:44.26 | 3:10.28 | 66326 | 80603
5 | 17:54.54 | 4:10.74 | 80604 | 99427
6 | 22:05.53 | 3:11.70 | 99428 | 113822
7 | 25:17.48 | 5:32.49 | 113823 | 138771
8 | 30:50.22 | 2:57.56 | 138772 | 152102
9 | 33:48.03 | 4:36.69 | 152103 | 172871
10 | 38:24.72 | 3:27.46 | 172872 | 188442
11 | 41:52.43 | 6:34.59 | 188443 | 218051
12 | 48:27.27 | 5:10.59 | 218052 | 241360
Track 1
Filename F:\MUSIC\0\POSTS\General Johnson - The Best Of The Arista Years (2011)\01 - Temperature Risin'.wav
Pre-gap length 0:00:02.00
Peak level 99.4 %
Extraction speed 2.3 X
Track quality 100.0 %
Test CRC 0AC747D0
Copy CRC 0AC747D0
Accurately ripped (confidence 2) [2BB2551E] (AR v2)
Copy OK
Track 2
Filename F:\MUSIC\0\POSTS\General Johnson - The Best Of The Arista Years (2011)\02 - Don't Walk Away.wav
Pre-gap length 0:00:01.23
Peak level 99.4 %
Extraction speed 2.9 X
Track quality 100.0 %
Test CRC 9350A9BF
Copy CRC 9350A9BF
Accurately ripped (confidence 2) [0C6B0C6B] (AR v2)
Copy OK
Track 3
Filename F:\MUSIC\0\POSTS\General Johnson - The Best Of The Arista Years (2011)\03 - We The People.wav
Pre-gap length 0:00:01.22
Peak level 87.2 %
Extraction speed 2.8 X
Track quality 100.0 %
Test CRC 48E003AF
Copy CRC 48E003AF
Accurately ripped (confidence 2) [D41897DA] (AR v2)
Copy OK
Track 4
Filename F:\MUSIC\0\POSTS\General Johnson - The Best Of The Arista Years (2011)\04 - Lies.wav
Pre-gap length 0:00:01.23
Peak level 99.4 %
Extraction speed 3.0 X
Track quality 100.0 %
Test CRC 72214F41
Copy CRC 72214F41
Accurately ripped (confidence 2) [BCA05918] (AR v2)
Copy OK
Track 5
Filename F:\MUSIC\0\POSTS\General Johnson - The Best Of The Arista Years (2011)\05 - All In The Family.wav
Pre-gap length 0:00:01.22
Peak level 99.4 %
Extraction speed 3.0 X
Track quality 99.9 %
Test CRC 81748352
Copy CRC 81748352
Accurately ripped (confidence 2) [DA211788] (AR v2)
Copy OK
Track 6
Filename F:\MUSIC\0\POSTS\General Johnson - The Best Of The Arista Years (2011)\06 - Only Love Cand Mend A Broken Heart.wav
Pre-gap length 0:00:01.22
Peak level 99.4 %
Extraction speed 3.3 X
Track quality 100.0 %
Test CRC A8796C75
Copy CRC A8796C75
Accurately ripped (confidence 2) [6AF5158F] (AR v2)
Copy OK
Track 7
Filename F:\MUSIC\0\POSTS\General Johnson - The Best Of The Arista Years (2011)\07 - Patches.wav
Pre-gap length 0:00:01.23
Peak level 99.4 %
Extraction speed 3.4 X
Track quality 99.9 %
Test CRC 3848C69A
Copy CRC 3848C69A
Accurately ripped (confidence 2) [16CB686B] (AR v2)
Copy OK
Track 8
Filename F:\MUSIC\0\POSTS\General Johnson - The Best Of The Arista Years (2011)\08 - Keep Keepin' On.wav
Pre-gap length 0:00:01.22
Peak level 89.3 %
Extraction speed 3.6 X
Track quality 100.0 %
Test CRC DC27D592
Copy CRC DC27D592
Accurately ripped (confidence 2) [ACE9AA67] (AR v2)
Copy OK
Track 9
Filename F:\MUSIC\0\POSTS\General Johnson - The Best Of The Arista Years (2011)\09 - Don't Walk Away (Special Disco Version).wav
Pre-gap length 0:00:01.22
Peak level 99.4 %
Extraction speed 4.1 X
Track quality 100.0 %
Test CRC 2CD3355A
Copy CRC 2CD3355A
Accurately ripped (confidence 2) [B21137F1] (AR v2)
Copy OK
Track 10
Filename F:\MUSIC\0\POSTS\General Johnson - The Best Of The Arista Years (2011)\10 - Ready Willing And Able.wav
Pre-gap length 0:00:01.23
Peak level 99.4 %
Extraction speed 4.0 X
Track quality 100.0 %
Test CRC C32045F3
Copy CRC C32045F3
Accurately ripped (confidence 2) [07388C3D] (AR v2)
Copy OK
Track 11
Filename F:\MUSIC\0\POSTS\General Johnson - The Best Of The Arista Years (2011)\11 - Let's Fool Around (12'' Version).wav
Pre-gap length 0:00:01.22
Peak level 82.2 %
Extraction speed 4.5 X
Track quality 100.0 %
Test CRC 926E8985
Copy CRC 926E8985
Accurately ripped (confidence 2) [D227761B] (AR v2)
Copy OK
Track 12
Filename F:\MUSIC\0\POSTS\General Johnson - The Best Of The Arista Years (2011)\12 - Can't Nobody Love Me Like You Do (12'' Disco Version).wav
Pre-gap length 0:00:01.22
Peak level 93.3 %
Extraction speed 4.1 X
Track quality 99.9 %
Test CRC 38F80C4A
Copy CRC 38F80C4A
Accurately ripped (confidence 2) [433FF603] (AR v2)
Copy OK
All tracks accurately ripped
No errors occurred
End of status report
==== Log checksum D92C6C62B4B2AE346AE75764AAB9ACCE28E85B3578C03F2153AE48123E03D1FB ====
 
Содержание индексной карты (.CUE)
REM GENRE Soul
REM DATE 2011
REM DISCID 9A0C920C
REM COMMENT "ExactAudioCopy v1.0b3"
PERFORMER "General Johnson"
TITLE "The Best Of The Arista Years"
FILE "01 - Temperature Risin'.wav" WAVE
TRACK 01 AUDIO
TITLE "Temperature Risin'"
PERFORMER "General Johnson"
INDEX 01 00:00:00
TRACK 02 AUDIO
TITLE "Don't Walk Away"
PERFORMER "General Johnson"
INDEX 00 05:51:10
FILE "02 - Don't Walk Away.wav" WAVE
INDEX 01 00:00:00
TRACK 03 AUDIO
TITLE "We The People"
PERFORMER "General Johnson"
INDEX 00 04:36:56
FILE "03 - We The People.wav" WAVE
INDEX 01 00:00:00
TRACK 04 AUDIO
TITLE "Lies"
PERFORMER "General Johnson"
INDEX 00 04:12:42
FILE "04 - Lies.wav" WAVE
INDEX 01 00:00:00
TRACK 05 AUDIO
TITLE "All In The Family"
PERFORMER "General Johnson"
INDEX 00 03:09:06
FILE "05 - All In The Family.wav" WAVE
INDEX 01 00:00:00
TRACK 06 AUDIO
TITLE "Only Love Cand Mend A Broken Heart"
PERFORMER "General Johnson"
INDEX 00 04:09:52
FILE "06 - Only Love Cand Mend A Broken Heart.wav" WAVE
INDEX 01 00:00:00
TRACK 07 AUDIO
TITLE "Patches"
PERFORMER "General Johnson"
INDEX 00 03:10:47
FILE "07 - Patches.wav" WAVE
INDEX 01 00:00:00
TRACK 08 AUDIO
TITLE "Keep Keepin' On"
PERFORMER "General Johnson"
INDEX 00 05:31:27
FILE "08 - Keep Keepin' On.wav" WAVE
INDEX 01 00:00:00
TRACK 09 AUDIO
TITLE "Don't Walk Away (Special Disco Version)"
PERFORMER "General Johnson"
INDEX 00 02:56:34
FILE "09 - Don't Walk Away (Special Disco Version).wav" WAVE
INDEX 01 00:00:00
TRACK 10 AUDIO
TITLE "Ready Willing And Able"
PERFORMER "General Johnson"
INDEX 00 04:35:46
FILE "10 - Ready Willing And Able.wav" WAVE
INDEX 01 00:00:00
TRACK 11 AUDIO
TITLE "Let's Fool Around (12'' Version)"
PERFORMER "General Johnson"
INDEX 00 03:26:24
FILE "11 - Let's Fool Around (12'' Version).wav" WAVE
INDEX 01 00:00:00
TRACK 12 AUDIO
TITLE "Can't Nobody Love Me Like You Do (12'' Disco Version)"
PERFORMER "General Johnson"
INDEX 00 06:33:37
FILE "12 - Can't Nobody Love Me Like You Do (12'' Disco Version).wav" WAVE
INDEX 01 00:00:00
Приватный:
Нет (DHT включён)
Размер:
706.13 Мб (740,435,442 байт) » файлов: 28
Участники:
0 раздают, 0 качают (0 участников всего)
Внешние участники:
2 раздают, 1 качают (3 участников всего) [ Обновить ]
Есть вопросы - пишите личное сообщение пользователю M0p94ok.
07:00
70
Нет комментариев. Ваш будет первым!