Поиск

(Soul) [CD] Roberta Flack - I'm The One (1982) - 2013, FLAC (tracks+.cue), lossless

(Soul) [CD] Roberta Flack - I'm The One (1982) - 2013, FLAC (tracks+.cue), lossless
Треклист:
Roberta Flack - I'm The One (1982)
Жанр: Soul
Носитель: CD
Страна-производитель диска (релиза): Japan
Год издания: 2013
Издатель (лейбл): Warner Music Japan Inc./Atlantic
Номер по каталогу: WPCR-15133
Аудиокодек: FLAC (*.flac)
Тип рипа: tracks+.cue
Битрейт аудио: lossless
Продолжительность: 35:31
Rip by JET 1
Наличие сканов в содержимом раздачи: да
Треклист:
01. I'm The One (4:06)
02. 'Til The Morning Comes (3:48)
03. Love And Let Love (4:35)
04. Never Loved Before (4:01)
05. In The Name Of Love (3:59)
06. Ordinary Man (4:29)
07. Making Love (3:45)
08. Happiness (3:25)
09. My Love For You (3:24)
 
 
Лог создания рипа
Exact Audio Copy V1.0 beta 3 from 29. August 2011
EAC extraction logfile from 8. July 2015, 17:37
Roberta Flack / I'm The One
Used drive : GENERIC CDRCB05 Adapter: 4 ID: 0
Read mode : Secure
Utilize accurate stream : Yes
Defeat audio cache : Yes
Make use of C2 pointers : No
Read offset correction : 102
Overread into Lead-In and Lead-Out : No
Fill up missing offset samples with silence : Yes
Delete leading and trailing silent blocks : No
Null samples used in CRC calculations : Yes
Used interface : Native Win32 interface for Win NT & 2000
Gap handling : Appended to previous track
Used output format : User Defined Encoder
Selected bitrate : 1024 kBit/s
Quality : High
Add ID3 tag : No
Command line compressor : C:\Program Files\FLAC\flac.exe
Additional command line options : -8 -V -T "ARTIST=%artist%" -T "TITLE=%title%" -T "ALBUM=%albumtitle%" -T "DATE=%year%" -T "TRACKNUMBER=%tracknr%" -T "GENRE=%genre%" -T "PERFORMER=%albuminterpret%" -T "COMPOSER=%composer%" %haslyrics%--tag-from-file=LYRICS="%lyricsfile%"%haslyrics% -T "ALBUMARTIST=%albumartist%" -T "DISCNUMBER=%cdnumber%" -T "TOTALDISCS=%totalcds%" -T "TOTALTRACKS=%numtracks%" -T "COMMENT=%comment%" %source% -o %dest%
TOC of the extracted CD
Track | Start | Length | Start sector | End sector
---------------------------------------------------------
1 | 0:00.00 | 4:06.15 | 0 | 18464
2 | 4:06.15 | 3:48.35 | 18465 | 35599
3 | 7:54.50 | 4:35.12 | 35600 | 56236
4 | 12:29.62 | 4:00.50 | 56237 | 74286
5 | 16:30.37 | 3:58.38 | 74287 | 92174
6 | 20:29.00 | 4:28.57 | 92175 | 112331
7 | 24:57.57 | 3:44.55 | 112332 | 129186
8 | 28:42.37 | 3:25.00 | 129187 | 144561
9 | 32:07.37 | 3:23.58 | 144562 | 159844
Track 1
Filename F:\MUSIC\0\POSTS\Roberta Flack - I'm The One (1982) [2013 Japan Mini-CD]\01 - I'm The One.wav
Pre-gap length 0:00:02.00
Peak level 100.0 %
Extraction speed 2.4 X
Track quality 100.0 %
Test CRC 083F8464
Copy CRC 083F8464
Cannot be verified as accurate (confidence 1) [6134359A], AccurateRip returned [D53E7B28] (AR v2)
Copy OK
Track 2
Filename F:\MUSIC\0\POSTS\Roberta Flack - I'm The One (1982) [2013 Japan Mini-CD]\02 - 'Til The Morning Comes.wav
Pre-gap length 0:00:02.25
Peak level 100.0 %
Extraction speed 2.6 X
Track quality 100.0 %
Test CRC 3C48E8EE
Copy CRC 3C48E8EE
Cannot be verified as accurate (confidence 1) [EAC041F1], AccurateRip returned [25EC6BF1] (AR v2)
Copy OK
Track 3
Filename F:\MUSIC\0\POSTS\Roberta Flack - I'm The One (1982) [2013 Japan Mini-CD]\03 - Love And Let Love.wav
Pre-gap length 0:00:02.25
Peak level 100.0 %
Extraction speed 2.9 X
Track quality 100.0 %
Test CRC DB5BB72E
Copy CRC DB5BB72E
Cannot be verified as accurate (confidence 1) [CD3B4390], AccurateRip returned [8DF62648] (AR v2)
Copy OK
Track 4
Filename F:\MUSIC\0\POSTS\Roberta Flack - I'm The One (1982) [2013 Japan Mini-CD]\04 - Never Loved Before.wav
Pre-gap length 0:00:02.60
Peak level 100.0 %
Extraction speed 2.7 X
Track quality 99.9 %
Test CRC 8A9FF35D
Copy CRC 8A9FF35D
Cannot be verified as accurate (confidence 1) [D0372CC3], AccurateRip returned [6FADDBC8] (AR v2)
Copy OK
Track 5
Filename F:\MUSIC\0\POSTS\Roberta Flack - I'm The One (1982) [2013 Japan Mini-CD]\05 - In The Name Of Love.wav
Pre-gap length 0:00:03.27
Peak level 100.0 %
Extraction speed 3.2 X
Track quality 100.0 %
Test CRC 4A4D8513
Copy CRC 4A4D8513
Cannot be verified as accurate (confidence 1) [1F0A7855], AccurateRip returned [FEDD8A54] (AR v2)
Copy OK
Track 6
Filename F:\MUSIC\0\POSTS\Roberta Flack - I'm The One (1982) [2013 Japan Mini-CD]\06 - Ordinary Man.wav
Pre-gap length 0:00:01.30
Peak level 100.0 %
Extraction speed 3.5 X
Track quality 100.0 %
Test CRC E44B28E6
Copy CRC E44B28E6
Cannot be verified as accurate (confidence 1) [A270E6C0], AccurateRip returned [90B68E02] (AR v2)
Copy OK
Track 7
Filename F:\MUSIC\0\POSTS\Roberta Flack - I'm The One (1982) [2013 Japan Mini-CD]\07 - Making Love.wav
Pre-gap length 0:00:02.25
Peak level 100.0 %
Extraction speed 3.1 X
Track quality 99.9 %
Test CRC 7F4206CE
Copy CRC 7F4206CE
Cannot be verified as accurate (confidence 1) [791728CC], AccurateRip returned [96B16D96] (AR v2)
Copy OK
Track 8
Filename F:\MUSIC\0\POSTS\Roberta Flack - I'm The One (1982) [2013 Japan Mini-CD]\08 - Happiness.wav
Pre-gap length 0:00:01.52
Peak level 100.0 %
Extraction speed 3.6 X
Track quality 100.0 %
Test CRC 81AF895E
Copy CRC 81AF895E
Cannot be verified as accurate (confidence 1) [709F77CC], AccurateRip returned [7034961E] (AR v2)
Copy OK
Track 9
Filename F:\MUSIC\0\POSTS\Roberta Flack - I'm The One (1982) [2013 Japan Mini-CD]\09 - My Love For You.wav
Pre-gap length 0:00:02.30
Peak level 100.0 %
Extraction speed 3.5 X
Track quality 100.0 %
Test CRC D6C64F68
Copy CRC D6C64F68
Cannot be verified as accurate (confidence 1) [710246EB], AccurateRip returned [22DF5569] (AR v2)
Copy OK
No tracks could be verified as accurate
You may have a different pressing from the one(s) in the database
No errors occurred
End of status report
==== Log checksum E49A485E85DF14ECA2D278785F0C0EBA663D4A669606B6CD9D22EE141D808823 ====
 
Содержание индексной карты (.CUE)
REM GENRE Jazz
REM DATE 2013
REM DISCID 83085309
REM COMMENT "ExactAudioCopy v1.0b3"
PERFORMER "Roberta Flack"
TITLE "I'm The One"
FILE "01 - I'm The One.wav" WAVE
TRACK 01 AUDIO
TITLE "I'm The One"
PERFORMER "Roberta Flack"
INDEX 01 00:00:00
TRACK 02 AUDIO
TITLE "'Til The Morning Comes"
PERFORMER "Roberta Flack"
INDEX 00 04:03:65
FILE "02 - 'Til The Morning Comes.wav" WAVE
INDEX 01 00:00:00
TRACK 03 AUDIO
TITLE "Love And Let Love"
PERFORMER "Roberta Flack"
INDEX 00 03:46:10
FILE "03 - Love And Let Love.wav" WAVE
INDEX 01 00:00:00
TRACK 04 AUDIO
TITLE "Never Loved Before"
PERFORMER "Roberta Flack"
INDEX 00 04:32:27
FILE "04 - Never Loved Before.wav" WAVE
INDEX 01 00:00:00
TRACK 05 AUDIO
TITLE "In The Name Of Love"
PERFORMER "Roberta Flack"
INDEX 00 03:57:23
FILE "05 - In The Name Of Love.wav" WAVE
INDEX 01 00:00:00
TRACK 06 AUDIO
TITLE "Ordinary Man"
PERFORMER "Roberta Flack"
INDEX 00 03:57:08
FILE "06 - Ordinary Man.wav" WAVE
INDEX 01 00:00:00
TRACK 07 AUDIO
TITLE "Making Love"
PERFORMER "Roberta Flack"
INDEX 00 04:26:32
FILE "07 - Making Love.wav" WAVE
INDEX 01 00:00:00
TRACK 08 AUDIO
TITLE "Happiness"
PERFORMER "Roberta Flack"
INDEX 00 03:43:03
FILE "08 - Happiness.wav" WAVE
INDEX 01 00:00:00
TRACK 09 AUDIO
TITLE "My Love For You"
PERFORMER "Roberta Flack"
INDEX 00 03:22:45
FILE "09 - My Love For You.wav" WAVE
INDEX 01 00:00:00
Приватный:
Нет (DHT включён)
Размер:
289.39 Мб (303,452,168 байт) » файлов: 29
Участники:
0 раздают, 0 качают (0 участников всего)
Внешние участники:
3 раздают, 1 качают (4 участников всего) [ Обновить ]
No seeders - write a personal message to user M0p94ok. Нет сидеров - пишите личное сообщение пользователю M0p94ok.
07:00
58
Нет комментариев. Ваш будет первым!