Поиск

(Soul, R&B) [CD] Shayna Steele - Shayna Steele - 2004, FLAC (tracks+.cue), lossless

(Soul, R&B) [CD] Shayna Steele - Shayna Steele - 2004, FLAC (tracks+.cue), lossless
Треклист:
Shayna Steele - Shayna Steele
Жанр: Soul, R&B
Носитель: CD
Год издания: 2004
Издатель (лейбл): ShaynaSteele.com
Номер по каталогу: 0020
Аудиокодек: FLAC (*.flac)
Тип рипа: tracks+.cue
Битрейт аудио: lossless
Продолжительность: 25:40
Rip by JET 1
Наличие сканов в содержимом раздачи: да
Треклист:
01. You Are My Soul (4:19)
02. So In 2 U (4:05)
03. Dying (4:21)
04. Whatever You Do (4:18)
05. High Yella (4:58)
06. Moving On (3:38)
 
 

 
 
Лог создания рипа
Exact Audio Copy V1.0 beta 3 from 29. August 2011
EAC extraction logfile from 3. July 2015, 15:26
Shayna Steele / Shayna Steele
Used drive : ATAPI DVD A DH16A6L-C Adapter: 2 ID: 0
Read mode : Secure
Utilize accurate stream : Yes
Defeat audio cache : Yes
Make use of C2 pointers : No
Read offset correction : 6
Overread into Lead-In and Lead-Out : No
Fill up missing offset samples with silence : Yes
Delete leading and trailing silent blocks : No
Null samples used in CRC calculations : Yes
Used interface : Native Win32 interface for Win NT & 2000
Gap handling : Appended to previous track
Used output format : User Defined Encoder
Selected bitrate : 1024 kBit/s
Quality : High
Add ID3 tag : No
Command line compressor : C:\Program Files\FLAC\flac.exe
Additional command line options : -8 -V -T "ARTIST=%artist%" -T "TITLE=%title%" -T "ALBUM=%albumtitle%" -T "DATE=%year%" -T "TRACKNUMBER=%tracknr%" -T "GENRE=%genre%" -T "PERFORMER=%albuminterpret%" -T "COMPOSER=%composer%" %haslyrics%--tag-from-file=LYRICS="%lyricsfile%"%haslyrics% -T "ALBUMARTIST=%albumartist%" -T "DISCNUMBER=%cdnumber%" -T "TOTALDISCS=%totalcds%" -T "TOTALTRACKS=%numtracks%" -T "COMMENT=%comment%" %source% -o %dest%
TOC of the extracted CD
Track | Start | Length | Start sector | End sector
---------------------------------------------------------
1 | 0:00.00 | 4:19.17 | 0 | 19441
2 | 4:19.17 | 4:05.12 | 19442 | 37828
3 | 8:24.29 | 4:21.29 | 37829 | 57432
4 | 12:45.58 | 4:17.71 | 57433 | 76778
5 | 17:03.54 | 4:57.48 | 76779 | 99101
6 | 22:01.27 | 3:38.14 | 99102 | 115465
Track 1
Filename F:\MUSIC\0\POSTS\Shayna Steele - Shayna Steele (2004)\01 - You Are My Soul.wav
Pre-gap length 0:00:02.00
Peak level 96.6 %
Extraction speed 3.0 X
Track quality 100.0 %
Test CRC 4EB6FD46
Copy CRC 4EB6FD46
Track not present in AccurateRip database
Copy OK
Track 2
Filename F:\MUSIC\0\POSTS\Shayna Steele - Shayna Steele (2004)\02 - So in 2 U.wav
Peak level 96.6 %
Extraction speed 3.8 X
Track quality 100.0 %
Test CRC D3DCE17C
Copy CRC D3DCE17C
Track not present in AccurateRip database
Copy OK
Track 3
Filename F:\MUSIC\0\POSTS\Shayna Steele - Shayna Steele (2004)\03 - Dying.wav
Peak level 96.6 %
Extraction speed 4.0 X
Track quality 100.0 %
Test CRC 9B8AD077
Copy CRC 9B8AD077
Track not present in AccurateRip database
Copy OK
Track 4
Filename F:\MUSIC\0\POSTS\Shayna Steele - Shayna Steele (2004)\04 - Whatever You Do.wav
Peak level 96.6 %
Extraction speed 3.3 X
Track quality 99.9 %
Test CRC 5A6D1D27
Copy CRC 5A6D1D27
Track not present in AccurateRip database
Copy OK
Track 5
Filename F:\MUSIC\0\POSTS\Shayna Steele - Shayna Steele (2004)\05 - High Yella.wav
Peak level 96.6 %
Extraction speed 4.2 X
Track quality 100.0 %
Test CRC F5426601
Copy CRC F5426601
Track not present in AccurateRip database
Copy OK
Track 6
Filename F:\MUSIC\0\POSTS\Shayna Steele - Shayna Steele (2004)\06 - Moving On.wav
Peak level 96.6 %
Extraction speed 3.9 X
Track quality 100.0 %
Test CRC 4FC05A54
Copy CRC 4FC05A54
Track not present in AccurateRip database
Copy OK
None of the tracks are present in the AccurateRip database
No errors occurred
End of status report
==== Log checksum 8E71F9510662241D6D3F3983FFE8154674BDEFED19D0486D146F7043E9BAFCBD ====
 
Содержание индексной карты (.CUE)
REM GENRE Soul
REM DATE 2004
REM DISCID 3B060306
REM COMMENT "ExactAudioCopy v1.0b3"
PERFORMER "Shayna Steele"
TITLE "Shayna Steele"
FILE "01 - You Are My Soul.wav" WAVE
TRACK 01 AUDIO
TITLE "You Are My Soul"
PERFORMER "Shayna Steele"
FLAGS DCP
INDEX 01 00:00:00
FILE "02 - So In 2 U.wav" WAVE
TRACK 02 AUDIO
TITLE "So In 2 U"
PERFORMER "Shayna Steele"
FLAGS DCP
INDEX 01 00:00:00
FILE "03 - Dying.wav" WAVE
TRACK 03 AUDIO
TITLE "Dying"
PERFORMER "Shayna Steele"
FLAGS DCP
INDEX 01 00:00:00
FILE "04 - Whatever You Do.wav" WAVE
TRACK 04 AUDIO
TITLE "Whatever You Do"
PERFORMER "Shayna Steele"
FLAGS DCP
INDEX 01 00:00:00
FILE "05 - High Yella.wav" WAVE
TRACK 05 AUDIO
TITLE "High Yella"
PERFORMER "Shayna Steele"
FLAGS DCP
INDEX 01 00:00:00
FILE "06 - Moving On.wav" WAVE
TRACK 06 AUDIO
TITLE "Moving On"
PERFORMER "Shayna Steele"
FLAGS DCP
INDEX 01 00:00:00
 
Об исполнителе (группе)
Shayna Steele (born September 23, 1975) is an American singer and songwriter and a Broadway stage actress. Her Broadway credits include Rent at the Nederlander Theatre, the revival of Jesus Christ Superstar at the Foxwoods Theatre (formerly the Ford Center for the Performing Arts), and the original Broadway cast of Hairspray, in which she played a member of the girl group The Dynamites.
Приватный:
Нет (DHT включён)
Размер:
254.72 Мб (267,091,814 байт) » файлов: 15
Участники:
0 раздают, 0 качают (0 участников всего)
Внешние участники:
2 раздают, 1 качают (3 участников всего) [ Обновить ]
Есть вопросы - пишите личное сообщение пользователю M0p94ok.
07:01
74
Нет комментариев. Ваш будет первым!