Поиск

(Soul, R&B) [CD] Percy Sledge - Greatest Hits - 1994, FLAC (image+.cue), lossless

(Soul, R&B) [CD] Percy Sledge - Greatest Hits - 1994, FLAC (image+.cue), lossless
Треклист:
Percy Sledge - Greatest Hits Жанр: Soul, R&B
Носитель: CD
Страна-производитель диска (релиза): Canada
Год издания: 1994
Издатель (лейбл): Retro Music
Номер по каталогу: SLD13502
Аудиокодек: FLAC (*.flac)
Тип рипа: image+.cue
Битрейт аудио: lossless
Продолжительность: 27:18
Rip by firepower
Наличие сканов в содержимом раздачи: да
Треклист:
01. When A Man Loves A Woman (2:57)
02. Warm And Tender Love (3:12)
03. Just Out Of Reach (3:35)
04. Cover Me (2:48)
05. It Tears Me Up (2:47)
06. My Special Prayer (2:59)
07. Take Time To Know Her (2:59)
08. (Sittin' On) The Dock Of The Bay (2:34)
09. Out Of Left Field (3:26)
 

Percy Sledge  —  November 25, 1940 – April 14, 2015
 
 
Лог создания рипа
Exact Audio Copy V1.0 beta 2 from 29. April 2011
EAC extraction logfile from 10. March 2013, 17:20
Percy Sledge / Greatest Hits
Used drive : LITE-ON LTR-52327S Adapter: 0 ID: 1
Read mode : Secure
Utilize accurate stream : Yes
Defeat audio cache : Yes
Make use of C2 pointers : No
Read offset correction : 6
Overread into Lead-In and Lead-Out : No
Fill up missing offset samples with silence : Yes
Delete leading and trailing silent blocks : No
Null samples used in CRC calculations : Yes
Used interface : Native Win32 interface for Win NT & 2000
Used output format : Internal WAV Routines
Sample format : 44.100 Hz; 16 Bit; Stereo
TOC of the extracted CD
Track | Start | Length | Start sector | End sector
---------------------------------------------------------
1 | 0:00.00 | 2:57.17 | 0 | 13291
2 | 2:57.17 | 3:12.35 | 13292 | 27726
3 | 6:09.52 | 3:35.23 | 27727 | 43874
4 | 9:45.00 | 2:48.17 | 43875 | 56491
5 | 12:33.17 | 2:46.58 | 56492 | 68999
6 | 15:20.00 | 2:58.65 | 69000 | 82414
7 | 18:18.65 | 2:59.25 | 82415 | 95864
8 | 21:18.15 | 2:33.52 | 95865 | 107391
9 | 23:51.67 | 3:26.35 | 107392 | 122876
Range status and errors
Selected range
Filename D:\My Rips\Percy Sledge - Greatest Hits.wav
Peak level 100.0 %
Extraction speed 4.9 X
Range quality 100.0 %
Test CRC 45E7687F
Copy CRC 45E7687F
Copy OK
No errors occurred
AccurateRip summary
Track 1 accurately ripped (confidence 1) [473282EF] (AR v1)
Track 2 accurately ripped (confidence 1) [FDD450B1] (AR v1)
Track 3 accurately ripped (confidence 1) [A286C3C4] (AR v1)
Track 4 accurately ripped (confidence 1) [B58A3146] (AR v1)
Track 5 accurately ripped (confidence 1) [8FAD1C7B] (AR v1)
Track 6 accurately ripped (confidence 1) [9E0D40CD] (AR v1)
Track 7 accurately ripped (confidence 1) [41BA4625] (AR v1)
Track 8 accurately ripped (confidence 1) [CD9C95DF] (AR v1)
Track 9 accurately ripped (confidence 1) [10B6CDCD] (AR v1)
All tracks accurately ripped
End of status report
==== Log checksum 574246DBD22C87AF9B449B4B86BF59CE58D186F98E37BEC3EA5E1B9DEE402600 ====
 
Содержание индексной карты (.CUE)
REM GENRE R&B
REM DATE 1994
REM DISCID 68066609
REM COMMENT "ExactAudioCopy v1.0b2"
PERFORMER "Percy Sledge"
TITLE "Greatest Hits"
FILE "Percy Sledge - Greatest Hits.flac" WAVE
TRACK 01 AUDIO
TITLE "When A Man Loves A Woman"
PERFORMER "Percy Sledge"
INDEX 01 00:00:00
TRACK 02 AUDIO
TITLE "Warm And Tender Love"
PERFORMER "Percy Sledge"
INDEX 00 02:56:17
INDEX 01 02:57:17
TRACK 03 AUDIO
TITLE "Just Out Of Reach"
PERFORMER "Percy Sledge"
INDEX 00 06:07:52
INDEX 01 06:09:52
TRACK 04 AUDIO
TITLE "Cover Me"
PERFORMER "Percy Sledge"
INDEX 00 09:43:00
INDEX 01 09:45:00
TRACK 05 AUDIO
TITLE "It Tears Me Up"
PERFORMER "Percy Sledge"
INDEX 00 12:32:17
INDEX 01 12:33:17
TRACK 06 AUDIO
TITLE "My Special Prayer"
PERFORMER "Percy Sledge"
INDEX 00 15:18:00
INDEX 01 15:20:00
TRACK 07 AUDIO
TITLE "Take Time To Know Her"
PERFORMER "Percy Sledge"
INDEX 00 18:16:65
INDEX 01 18:18:65
TRACK 08 AUDIO
TITLE "(Sittin' On) The Dock Of The Bay"
PERFORMER "Percy Sledge"
INDEX 00 21:17:15
INDEX 01 21:18:15
TRACK 09 AUDIO
TITLE "Out Of Left Field"
PERFORMER "Percy Sledge"
INDEX 00 23:49:67
INDEX 01 23:51:67
Приватный:
Нет (DHT включён)
Размер:
195.18 Мб (204,660,670 байт) » файлов: 9
Участники:
0 раздают, 0 качают (0 участников всего)
Внешние участники:
2 раздают, 1 качают (3 участников всего) [ Обновить ]
Есть вопросы - пишите личное сообщение пользователю M0p94ok.
05:28
87
Нет комментариев. Ваш будет первым!