Поиск

(Soul, R&B) [CD] Linda Williams - City Living (1979) - 2011, FLAC (tracks+.cue), lossless

(Soul, R&B) [CD] Linda Williams - City Living (1979) - 2011, FLAC (tracks+.cue), lossless
Треклист:
Linda Williams - City Living (1979) Жанр: Soul, R&B
Носитель: CD
Год издания: 2011
Издатель (лейбл): Big Break Records
Номер по каталогу: CDBBR 0071
Аудиокодек: FLAC (*.flac)
Тип рипа: tracks+.cue
Битрейт аудио: lossless
Продолжительность: 45:01
Rip by JET 1
Наличие сканов в содержимом раздачи: да
Треклист:
01. City Living (5:26)
02. No Love, No Where, Without You (4:26)
03. Oh Honey (3:55)
04. Elevate Our Minds (4:39)
05. Do It (4:34)
06. Our Song (4:12)
07. Welcome Little One (3:15)
08. Loving You Forever (3:22)
09. Happy Music (4:31)
~ Bonus tracks ~
10. No Love, No Where, Without You (Single Version) (3:36)
11. City Living (Single Version) (3:05)
 
 
Лог создания рипа
Exact Audio Copy V1.0 beta 3 from 29. August 2011
EAC extraction logfile from 13. April 2015, 16:07
Linda Williams / City Living
Used drive : GENERIC CDRCB05 Adapter: 4 ID: 0
Read mode : Secure
Utilize accurate stream : Yes
Defeat audio cache : Yes
Make use of C2 pointers : No
Read offset correction : 102
Overread into Lead-In and Lead-Out : No
Fill up missing offset samples with silence : Yes
Delete leading and trailing silent blocks : No
Null samples used in CRC calculations : Yes
Used interface : Native Win32 interface for Win NT & 2000
Gap handling : Appended to previous track
Used output format : User Defined Encoder
Selected bitrate : 1024 kBit/s
Quality : High
Add ID3 tag : No
Command line compressor : C:\Program Files\FLAC\flac.exe
Additional command line options : -8 -V -T "ARTIST=%artist%" -T "TITLE=%title%" -T "ALBUM=%albumtitle%" -T "DATE=%year%" -T "TRACKNUMBER=%tracknr%" -T "GENRE=%genre%" -T "PERFORMER=%albuminterpret%" -T "COMPOSER=%composer%" %haslyrics%--tag-from-file=LYRICS="%lyricsfile%"%haslyrics% -T "ALBUMARTIST=%albumartist%" -T "DISCNUMBER=%cdnumber%" -T "TOTALDISCS=%totalcds%" -T "TOTALTRACKS=%numtracks%" -T "COMMENT=%comment%" %source% -o %dest%
TOC of the extracted CD
Track | Start | Length | Start sector | End sector
---------------------------------------------------------
1 | 0:00.00 | 5:25.64 | 0 | 24438
2 | 5:25.64 | 4:25.42 | 24439 | 44355
3 | 9:51.31 | 3:55.20 | 44356 | 62000
4 | 13:46.51 | 4:38.53 | 62001 | 82903
5 | 18:25.29 | 4:34.29 | 82904 | 103482
6 | 22:59.58 | 4:11.68 | 103483 | 122375
7 | 27:11.51 | 3:15.30 | 122376 | 137030
8 | 30:27.06 | 3:22.00 | 137031 | 152180
9 | 33:49.06 | 4:30.43 | 152181 | 172473
10 | 38:19.49 | 3:35.49 | 172474 | 188647
11 | 41:55.23 | 3:05.30 | 188648 | 202552
Track 1
Filename H:\0\New Folder\01 - City Living.wav
Pre-gap length 0:00:02.00
Peak level 96.6 %
Extraction speed 2.6 X
Track quality 100.0 %
Test CRC 625A8484
Copy CRC 625A8484
Accurately ripped (confidence 2) [B844694D] (AR v2)
Copy OK
Track 2
Filename H:\0\New Folder\02 - No Love, No Where, Without You.wav
Pre-gap length 0:00:01.73
Peak level 96.6 %
Extraction speed 2.8 X
Track quality 100.0 %
Test CRC 3B810135
Copy CRC 3B810135
Accurately ripped (confidence 2) [2F7947C7] (AR v2)
Copy OK
Track 3
Filename H:\0\New Folder\03 - Oh Honey.wav
Pre-gap length 0:00:01.74
Peak level 96.6 %
Extraction speed 3.0 X
Track quality 100.0 %
Test CRC FE66821E
Copy CRC FE66821E
Accurately ripped (confidence 2) [FD7EAF93] (AR v2)
Copy OK
Track 4
Filename H:\0\New Folder\04 - Elevate Our Minds.wav
Pre-gap length 0:00:01.73
Peak level 96.6 %
Extraction speed 3.3 X
Track quality 100.0 %
Test CRC 6323D131
Copy CRC 6323D131
Accurately ripped (confidence 2) [4B307C73] (AR v2)
Copy OK
Track 5
Filename H:\0\New Folder\05 - Do It.wav
Pre-gap length 0:00:01.73
Peak level 96.6 %
Extraction speed 3.5 X
Track quality 100.0 %
Test CRC B0D61EBE
Copy CRC B0D61EBE
Accurately ripped (confidence 2) [7F0D5E62] (AR v2)
Copy OK
Track 6
Filename H:\0\New Folder\06 - Our Song.wav
Pre-gap length 0:00:01.73
Peak level 96.6 %
Extraction speed 3.6 X
Track quality 100.0 %
Test CRC 1D82057A
Copy CRC 1D82057A
Accurately ripped (confidence 2) [28BCEC87] (AR v2)
Copy OK
Track 7
Filename H:\0\New Folder\07 - Welcome Little One.wav
Pre-gap length 0:00:01.73
Peak level 96.6 %
Extraction speed 3.6 X
Track quality 100.0 %
Test CRC 8D4F8DBE
Copy CRC 8D4F8DBE
Accurately ripped (confidence 2) [17739942] (AR v2)
Copy OK
Track 8
Filename H:\0\New Folder\08 - Loving You Forever.wav
Pre-gap length 0:00:01.73
Peak level 96.6 %
Extraction speed 3.8 X
Track quality 100.0 %
Test CRC 0336FBFC
Copy CRC 0336FBFC
Accurately ripped (confidence 2) [E480F2C1] (AR v2)
Copy OK
Track 9
Filename H:\0\New Folder\09 - Happy Music.wav
Pre-gap length 0:00:01.73
Peak level 96.6 %
Extraction speed 3.7 X
Track quality 99.9 %
Test CRC 2BFAEF51
Copy CRC 2BFAEF51
Accurately ripped (confidence 2) [46A759D8] (AR v2)
Copy OK
Track 10
Filename H:\0\New Folder\10 - No Love, No Where, Without You (Single Version).wav
Pre-gap length 0:00:02.73
Peak level 96.6 %
Extraction speed 4.1 X
Track quality 100.0 %
Test CRC 8047BE83
Copy CRC 8047BE83
Accurately ripped (confidence 2) [A1095451] (AR v2)
Copy OK
Track 11
Filename H:\0\New Folder\11 - City Living (Single Version).wav
Pre-gap length 0:00:01.73
Peak level 96.6 %
Extraction speed 4.2 X
Track quality 100.0 %
Test CRC FA936D1A
Copy CRC FA936D1A
Accurately ripped (confidence 2) [D418279F] (AR v2)
Copy OK
All tracks accurately ripped
No errors occurred
End of status report
==== Log checksum 5B0AAF03692274336D34E995DDCCB666221CB8BC214CB42EEE4139B176B2A908 ====
 
Содержание индексной карты (.CUE)
REM GENRE Soul
REM DATE 1979
REM DISCID 830A8C0B
REM COMMENT "ExactAudioCopy v1.0b3"
PERFORMER "Linda Williams"
TITLE "City Living"
FILE "01 - City Living.wav" WAVE
TRACK 01 AUDIO
TITLE "City Living"
PERFORMER "Linda Williams"
INDEX 01 00:00:00
TRACK 02 AUDIO
TITLE "No Love, No Where, Without You"
PERFORMER "Linda Williams"
INDEX 00 05:23:66
FILE "02 - No Love, No Where, Without You.wav" WAVE
INDEX 01 00:00:00
TRACK 03 AUDIO
TITLE "Oh Honey"
PERFORMER "Linda Williams"
INDEX 00 04:23:43
FILE "03 - Oh Honey.wav" WAVE
INDEX 01 00:00:00
TRACK 04 AUDIO
TITLE "Elevate Our Minds"
PERFORMER "Linda Williams"
INDEX 00 03:53:22
FILE "04 - Elevate Our Minds.wav" WAVE
INDEX 01 00:00:00
TRACK 05 AUDIO
TITLE "Do It"
PERFORMER "Linda Williams"
INDEX 00 04:36:55
FILE "05 - Do It.wav" WAVE
INDEX 01 00:00:00
TRACK 06 AUDIO
TITLE "Our Song"
PERFORMER "Linda Williams"
INDEX 00 04:32:31
FILE "06 - Our Song.wav" WAVE
INDEX 01 00:00:00
TRACK 07 AUDIO
TITLE "Welcome Little One"
PERFORMER "Linda Williams"
INDEX 00 04:09:70
FILE "07 - Welcome Little One.wav" WAVE
INDEX 01 00:00:00
TRACK 08 AUDIO
TITLE "Loving You Forever"
PERFORMER "Linda Williams"
INDEX 00 03:13:32
FILE "08 - Loving You Forever.wav" WAVE
INDEX 01 00:00:00
TRACK 09 AUDIO
TITLE "Happy Music"
PERFORMER "Linda Williams"
INDEX 00 03:20:02
FILE "09 - Happy Music.wav" WAVE
INDEX 01 00:00:00
TRACK 10 AUDIO
TITLE "No Love, No Where, Without You (Single Version)"
PERFORMER "Linda Williams"
INDEX 00 04:27:45
FILE "10 - No Love, No Where, Without You (Single Version).wav" WAVE
INDEX 01 00:00:00
TRACK 11 AUDIO
TITLE "City Living (Single Version)"
PERFORMER "Linda Williams"
INDEX 00 03:33:51
FILE "11 - City Living (Single Version).wav" WAVE
INDEX 01 00:00:00
Приватный:
Нет (DHT включён)
Размер:
485.41 Мб (508,987,883 байт) » файлов: 25
Участники:
0 раздают, 0 качают (0 участников всего)
Внешние участники:
3 раздают, 1 качают (4 участников всего) [ Обновить ]
Есть вопросы - пишите личное сообщение пользователю M0p94ok.
05:28
77
Нет комментариев. Ваш будет первым!