Поиск

(Funk, Soul, R&B) [CD] Tonee & Bill Collins - Collins And Collins (1980) - 2014 {UICY-76202}, FLAC (tracks+.cue), lossless

(Funk, Soul, R&B) [CD] Tonee & Bill Collins - Collins And Collins (1980) - 2014 {UICY-76202}, FLAC (tracks+.cue), lossless
Треклист:
Tonee & Bill Collins - Collins And Collins (1980) Жанр: Funk, Soul, R&B
Носитель: CD
Страна-производитель диска: Japan
Год издания: 2014
Издатель (лейбл): Universal Music
Номер по каталогу: UICY-76202
Аудиокодек: FLAC (*.flac)
Тип рипа: tracks+.cue
Битрейт аудио: lossless
Продолжительность: 34:27
Rip by JET 1
Наличие сканов в содержимом раздачи: да
Треклист:
01. Top Of The Stairs (4:44)
02. You Know How To Make Me Feel So Good (3:55)
03. Do You Wanna Dance (4:23)
04. Can't Turn Down Love (4:22)
05. You Made Me Believe (5:04)
06. I'm Feelin' Your Love (3:40)
07. Please Don't Break My Heart (4:53)
08. Yo-Yo (3:27)
 
 
Лог создания рипа
Exact Audio Copy V1.0 beta 3 from 29. August 2011
EAC extraction logfile from 1. February 2015, 16:22
Collins & Collins / Collins & Collins [Japanese CD Edition]
Used drive : ATAPI DVD A DH16A6L-C Adapter: 2 ID: 0
Read mode : Secure
Utilize accurate stream : Yes
Defeat audio cache : Yes
Make use of C2 pointers : No
Read offset correction : 6
Overread into Lead-In and Lead-Out : No
Fill up missing offset samples with silence : Yes
Delete leading and trailing silent blocks : No
Null samples used in CRC calculations : Yes
Used interface : Native Win32 interface for Win NT & 2000
Gap handling : Appended to previous track
Used output format : User Defined Encoder
Selected bitrate : 1024 kBit/s
Quality : High
Add ID3 tag : No
Command line compressor : C:\Program Files\FLAC\flac.exe
Additional command line options : -8 -V -T "ARTIST=%artist%" -T "TITLE=%title%" -T "ALBUM=%albumtitle%" -T "DATE=%year%" -T "TRACKNUMBER=%tracknr%" -T "GENRE=%genre%" -T "PERFORMER=%albuminterpret%" -T "COMPOSER=%composer%" %haslyrics%--tag-from-file=LYRICS="%lyricsfile%"%haslyrics% -T "ALBUMARTIST=%albumartist%" -T "DISCNUMBER=%cdnumber%" -T "TOTALDISCS=%totalcds%" -T "TOTALTRACKS=%numtracks%" -T "COMMENT=%comment%" %source% -o %dest%
TOC of the extracted CD
Track | Start | Length | Start sector | End sector
---------------------------------------------------------
1 | 0:00.00 | 4:43.42 | 0 | 21266
2 | 4:43.42 | 3:55.05 | 21267 | 38896
3 | 8:38.47 | 4:22.50 | 38897 | 58596
4 | 13:01.22 | 4:22.03 | 58597 | 78249
5 | 17:23.25 | 5:04.07 | 78250 | 101056
6 | 22:27.32 | 3:40.23 | 101057 | 117579
7 | 26:07.55 | 4:52.42 | 117580 | 139521
8 | 31:00.22 | 3:27.15 | 139522 | 155061
Track 1
Filename I:\0\Collins & Collins - Collins & Collins (1980) [2014 Japan]\01 - Top Of The Stairs.wav
Pre-gap length 0:00:02.00
Peak level 99.1 %
Extraction speed 3.5 X
Track quality 100.0 %
Test CRC 575AC36C
Copy CRC 575AC36C
Accurately ripped (confidence 2) [E8B2DEAE] (AR v2)
Copy OK
Track 2
Filename I:\0\Collins & Collins - Collins & Collins (1980) [2014 Japan]\02 - You Know How To Make Me Feel So Good.wav
Peak level 97.6 %
Extraction speed 3.1 X
Track quality 99.9 %
Test CRC 069433C9
Copy CRC 069433C9
Accurately ripped (confidence 2) [B6F948AB] (AR v2)
Copy OK
Track 3
Filename I:\0\Collins & Collins - Collins & Collins (1980) [2014 Japan]\03 - Do You Wanna Dance.wav
Peak level 97.6 %
Extraction speed 4.3 X
Track quality 100.0 %
Test CRC 44DCDA1A
Copy CRC 44DCDA1A
Accurately ripped (confidence 2) [4768E591] (AR v2)
Copy OK
Track 4
Filename I:\0\Collins & Collins - Collins & Collins (1980) [2014 Japan]\04 - Can't Turn Down Love.wav
Peak level 97.6 %
Extraction speed 4.6 X
Track quality 100.0 %
Test CRC 2BBDC013
Copy CRC 2BBDC013
Accurately ripped (confidence 2) [9A4C0C2F] (AR v2)
Copy OK
Track 5
Filename I:\0\Collins & Collins - Collins & Collins (1980) [2014 Japan]\05 - You Made Me Believe.wav
Peak level 97.6 %
Extraction speed 4.2 X
Track quality 99.9 %
Test CRC 71719ADC
Copy CRC 71719ADC
Accurately ripped (confidence 2) [BDACF5FC] (AR v2)
Copy OK
Track 6
Filename I:\0\Collins & Collins - Collins & Collins (1980) [2014 Japan]\06 - I'm Feelin' Your Love.wav
Peak level 89.9 %
Extraction speed 5.1 X
Track quality 100.0 %
Test CRC A395DA7E
Copy CRC A395DA7E
Accurately ripped (confidence 2) [88875D41] (AR v2)
Copy OK
Track 7
Filename I:\0\Collins & Collins - Collins & Collins (1980) [2014 Japan]\07 - Please Don't Break My Heart.wav
Peak level 97.6 %
Extraction speed 5.5 X
Track quality 100.0 %
Test CRC 80163B6A
Copy CRC 80163B6A
Accurately ripped (confidence 2) [177C9F6F] (AR v2)
Copy OK
Track 8
Filename I:\0\Collins & Collins - Collins & Collins (1980) [2014 Japan]\08 - Yo-Yo.wav
Peak level 97.6 %
Extraction speed 5.5 X
Track quality 100.0 %
Test CRC 91FD5795
Copy CRC 91FD5795
Accurately ripped (confidence 2) [19853849] (AR v2)
Copy OK
All tracks accurately ripped
No errors occurred
End of status report
==== Log checksum B0869E60DDB70362EFD691FC68CD2FE78BA4E2AD4754AB2C7B200115A4AEA982 ====
 
Содержание индексной карты (.CUE)
REM GENRE Soul
REM DATE 1980
REM DISCID 6B081308
REM COMMENT "ExactAudioCopy v1.0b3"
PERFORMER "Collins & Collins"
TITLE "Collins & Collins [Japanese CD Edition]"
FILE "01 - Top Of The Stairs.wav" WAVE
TRACK 01 AUDIO
TITLE "Top Of The Stairs"
PERFORMER "Collins & Collins"
INDEX 01 00:00:00
FILE "02 - You Know How To Make Me Feel So Good.wav" WAVE
TRACK 02 AUDIO
TITLE "You Know How To Make Me Feel So Good"
PERFORMER "Collins & Collins"
INDEX 01 00:00:00
FILE "03 - Do You Wanna Dance.wav" WAVE
TRACK 03 AUDIO
TITLE "Do You Wanna Dance"
PERFORMER "Collins & Collins"
INDEX 01 00:00:00
FILE "04 - Can't Turn Down Love.wav" WAVE
TRACK 04 AUDIO
TITLE "Can't Turn Down Love"
PERFORMER "Collins & Collins"
INDEX 01 00:00:00
FILE "05 - You Made Me Believe.wav" WAVE
TRACK 05 AUDIO
TITLE "You Made Me Believe"
PERFORMER "Collins & Collins"
INDEX 01 00:00:00
FILE "06 - I'm Feelin' Your Love.wav" WAVE
TRACK 06 AUDIO
TITLE "I'm Feelin' Your Love"
PERFORMER "Collins & Collins"
INDEX 01 00:00:00
FILE "07 - Please Don't Break My Heart.wav" WAVE
TRACK 07 AUDIO
TITLE "Please Don't Break My Heart"
PERFORMER "Collins & Collins"
INDEX 01 00:00:00
FILE "08 - Yo-Yo.wav" WAVE
TRACK 08 AUDIO
TITLE "Yo-Yo"
PERFORMER "Collins & Collins"
INDEX 01 00:00:00
Приватный:
Нет (DHT включён)
Размер:
317.83 Мб (333,263,945 байт) » файлов: 24
Участники:
0 раздают, 0 качают (0 участников всего)
Внешние участники:
1 раздают, 0 качают (1 участников всего) [ Обновить ]
No seeders - write a personal message to user M0p94ok. Нет сидеров - пишите личное сообщение пользователю M0p94ok.
05:29
79
Нет комментариев. Ваш будет первым!