Поиск

(Funk, Soul) [CD] LaBelle - Pressure Cookin' (1973) - 2014, FLAC (tracks+.cue), lossless

(Funk, Soul) [CD] LaBelle - Pressure Cookin' (1973) - 2014, FLAC (tracks+.cue), lossless
Треклист:
LaBelle - Pressure Cookin' (1973) Жанр: Funk, Soul
Носитель: CD
Год издания: 2014
Издатель (лейбл): Soul Music Records
Номер по каталогу: SMCR 5123
Аудиокодек: FLAC (*.flac)
Тип рипа: tracks+.cue
Битрейт аудио: lossless
Продолжительность: 40:45
Rip by JET 1
Наличие сканов в содержимом раздачи: да
Треклист:
01. Pressure Cookin' (3:03)
02. Medley: Somethin' In The Air / The Revolution Will Not Be Televised (5:58)
03. Sunshine (Woke Me Up This Morning) (3:23)
04. (Can I Speak Before You Go To) Hollywood (6:39)
05. Mr. Music Man (4:10)
06. Goin' On A Holiday (3:25)
07. Let Me See You In The Light (6:19)
08. Open Up Your Heart (3:28)
09. Last Dance (4:20)
 
 
Лог создания рипа
Exact Audio Copy V1.0 beta 3 from 29. August 2011
EAC extraction logfile from 12. April 2015, 16:35
Labelle / Pressure Cookin'
Used drive : ATAPI DVD A DH16A6L-C Adapter: 2 ID: 0
Read mode : Secure
Utilize accurate stream : Yes
Defeat audio cache : Yes
Make use of C2 pointers : No
Read offset correction : 6
Overread into Lead-In and Lead-Out : No
Fill up missing offset samples with silence : Yes
Delete leading and trailing silent blocks : No
Null samples used in CRC calculations : Yes
Used interface : Native Win32 interface for Win NT & 2000
Gap handling : Appended to previous track
Used output format : User Defined Encoder
Selected bitrate : 1024 kBit/s
Quality : High
Add ID3 tag : No
Command line compressor : C:\Program Files\FLAC\flac.exe
Additional command line options : -8 -V -T "ARTIST=%artist%" -T "TITLE=%title%" -T "ALBUM=%albumtitle%" -T "DATE=%year%" -T "TRACKNUMBER=%tracknr%" -T "GENRE=%genre%" -T "PERFORMER=%albuminterpret%" -T "COMPOSER=%composer%" %haslyrics%--tag-from-file=LYRICS="%lyricsfile%"%haslyrics% -T "ALBUMARTIST=%albumartist%" -T "DISCNUMBER=%cdnumber%" -T "TOTALDISCS=%totalcds%" -T "TOTALTRACKS=%numtracks%" -T "COMMENT=%comment%" %source% -o %dest%
TOC of the extracted CD
Track | Start | Length | Start sector | End sector
---------------------------------------------------------
1 | 0:00.00 | 3:02.73 | 0 | 13722
2 | 3:02.73 | 5:57.52 | 13723 | 40549
3 | 9:00.50 | 3:22.56 | 40550 | 55755
4 | 12:23.31 | 6:39.15 | 55756 | 85695
5 | 19:02.46 | 4:10.20 | 85696 | 104465
6 | 23:12.66 | 3:25.06 | 104466 | 119846
7 | 26:37.72 | 6:18.63 | 119847 | 148259
8 | 32:56.60 | 3:28.27 | 148260 | 163886
9 | 36:25.12 | 4:19.70 | 163887 | 183381
Track 1
Filename I:\0\LaBelle ‎- Pressure Cookin' (1973) [2014 Expanded Edition]\01 - Pressure Cookin'.wav
Pre-gap length 0:00:02.00
Peak level 98.8 %
Extraction speed 2.9 X
Track quality 100.0 %
Test CRC 547EDDBF
Copy CRC 547EDDBF
Accurately ripped (confidence 1) [103B79F9] (AR v2)
Copy OK
Track 2
Filename I:\0\LaBelle ‎- Pressure Cookin' (1973) [2014 Expanded Edition]\02 - Somethin' In The Air,The Revolution....wav
Pre-gap length 0:00:02.00
Peak level 96.5 %
Extraction speed 3.7 X
Track quality 100.0 %
Test CRC 73129DA1
Copy CRC 73129DA1
Accurately ripped (confidence 1) [42166B2F] (AR v2)
Copy OK
Track 3
Filename I:\0\LaBelle ‎- Pressure Cookin' (1973) [2014 Expanded Edition]\03 - Sunshine.wav
Pre-gap length 0:00:02.00
Peak level 97.3 %
Extraction speed 4.0 X
Track quality 100.0 %
Test CRC DC3294CB
Copy CRC DC3294CB
Accurately ripped (confidence 1) [9D7D79AB] (AR v2)
Copy OK
Track 4
Filename I:\0\LaBelle ‎- Pressure Cookin' (1973) [2014 Expanded Edition]\04 - (Can I Speak Before You Go To) Hollywood.wav
Pre-gap length 0:00:02.00
Peak level 97.7 %
Extraction speed 4.7 X
Track quality 100.0 %
Test CRC D95F9376
Copy CRC D95F9376
Accurately ripped (confidence 1) [41BBF1B4] (AR v2)
Copy OK
Track 5
Filename I:\0\LaBelle ‎- Pressure Cookin' (1973) [2014 Expanded Edition]\05 - Mr. Music Man.wav
Pre-gap length 0:00:02.00
Peak level 97.7 %
Extraction speed 4.9 X
Track quality 100.0 %
Test CRC 55A10F57
Copy CRC 55A10F57
Accurately ripped (confidence 1) [BBEC5840] (AR v2)
Copy OK
Track 6
Filename I:\0\LaBelle ‎- Pressure Cookin' (1973) [2014 Expanded Edition]\06 - Goin' On A Holiday.wav
Pre-gap length 0:00:02.00
Peak level 97.7 %
Extraction speed 4.6 X
Track quality 100.0 %
Test CRC 7094C208
Copy CRC 7094C208
Accurately ripped (confidence 1) [1999AFF5] (AR v2)
Copy OK
Track 7
Filename I:\0\LaBelle ‎- Pressure Cookin' (1973) [2014 Expanded Edition]\07 - Let Me See You In The Light.wav
Pre-gap length 0:00:02.00
Peak level 96.0 %
Extraction speed 4.7 X
Track quality 99.9 %
Test CRC A95F00EE
Copy CRC A95F00EE
Accurately ripped (confidence 1) [7C71D346] (AR v2)
Copy OK
Track 8
Filename I:\0\LaBelle ‎- Pressure Cookin' (1973) [2014 Expanded Edition]\08 - Open Up Your Heart.wav
Pre-gap length 0:00:02.00
Peak level 97.7 %
Extraction speed 5.0 X
Track quality 100.0 %
Test CRC 6D345FB8
Copy CRC 6D345FB8
Accurately ripped (confidence 1) [CA2F5A6D] (AR v2)
Copy OK
Track 9
Filename I:\0\LaBelle ‎- Pressure Cookin' (1973) [2014 Expanded Edition]\09 - Last Dance.wav
Pre-gap length 0:00:02.00
Peak level 97.7 %
Extraction speed 4.6 X
Track quality 99.9 %
Test CRC EDD990B2
Copy CRC EDD990B2
Accurately ripped (confidence 1) [6F577F7A] (AR v2)
Copy OK
All tracks accurately ripped
No errors occurred
End of status report
==== Log checksum 2907D48F8CA58E0A3E8C649487D4EA4CC81537EF58C8DDDA2420F110F10711E6 ====
 
Содержание индексной карты (.CUE)
REM GENRE Soul
REM DATE 1973
REM DISCID 88098D09
REM COMMENT "ExactAudioCopy v1.0b3"
PERFORMER "Labelle"
TITLE "Pressure Cookin'"
FILE "01. Pressure Cookin'.flac" WAVE
TRACK 01 AUDIO
TITLE "Pressure Cookin'"
PERFORMER "Labelle"
INDEX 01 00:00:00
TRACK 02 AUDIO
TITLE "Medley: Somethin' In The Air / The Revolution Will Not Be Televised"
PERFORMER "Labelle"
INDEX 00 03:00:73
FILE "02. Medley- Somethin' In The Air - The Revolution Will Not Be Televised.flac" WAVE
INDEX 01 00:00:00
TRACK 03 AUDIO
TITLE "Sunshine (Woke Me Up This Morning)"
PERFORMER "Labelle"
INDEX 00 05:55:52
FILE "03. Sunshine (Woke Me Up This Morning).flac" WAVE
INDEX 01 00:00:00
TRACK 04 AUDIO
TITLE "(Can I Speak Before You Go To) Hollywood"
PERFORMER "Labelle"
INDEX 00 03:20:56
FILE "04. (Can I Speak Before You Go To) Hollywood.flac" WAVE
INDEX 01 00:00:00
TRACK 05 AUDIO
TITLE "Mr. Music Man"
PERFORMER "Labelle"
INDEX 00 06:37:15
FILE "05. Mr. Music Man.flac" WAVE
INDEX 01 00:00:00
TRACK 06 AUDIO
TITLE "Goin' On A Holiday"
PERFORMER "Labelle"
INDEX 00 04:08:20
FILE "06. Goin' On A Holiday.flac" WAVE
INDEX 01 00:00:00
TRACK 07 AUDIO
TITLE "Let Me See You In The Light"
PERFORMER "Labelle"
INDEX 00 03:23:06
FILE "07. Let Me See You In The Light.flac" WAVE
INDEX 01 00:00:00
TRACK 08 AUDIO
TITLE "Open Up Your Heart"
PERFORMER "Labelle"
INDEX 00 06:16:63
FILE "08. Open Up Your Heart.flac" WAVE
INDEX 01 00:00:00
TRACK 09 AUDIO
TITLE "Last Dance"
PERFORMER "Labelle"
INDEX 00 03:26:27
FILE "09. Last Dance.flac" WAVE
INDEX 01 00:00:00
Приватный:
Нет (DHT включён)
Размер:
425.95 Мб (446,636,265 байт) » файлов: 27
Участники:
0 раздают, 0 качают (0 участников всего)
Внешние участники:
2 раздают, 1 качают (3 участников всего) [ Обновить ]
Есть вопросы - пишите личное сообщение пользователю M0p94ok.
05:27
127
Нет комментариев. Ваш будет первым!