Поиск

(Funk, Soul) Tuomo - My Thing - 2007, FLAC (tracks+.cue), lossless

(Funk, Soul) Tuomo - My Thing - 2007, FLAC (tracks+.cue), lossless
Треклист:
Tuomo / My Thing
Жанр: Funk, Soul
Страна-производитель диска (релиза): EU
Год издания: 2007
Издатель (лейбл): Jupiter/Tecicalli Records
Номер по каталогу: JUP019CD
Страна исполнителя (группы): Finland
Аудиокодек: FLAC (*.flac)
Тип рипа: tracks+.cue
Битрейт аудио: lossless
Продолжительность: 0:47:13.
Источник (релизер): clustert
Наличие сканов в содержимом раздачи: да
Треклист:
01. My Wish [0:02:47.00]
02. My Thing [0:03:43.11]
03. Since Or Before [0:04:36.34]
04. True Friend [0:02:41.01]
05. Don't Take It Too Hard [0:03:14.02]
06. 26 [0:03:42.69]
07. Puddle Of Love [0:02:48.29]
08. Sorry When I'm Gone [0:04:18.73]
09. Ballroom Girl [0:06:37.57]
10. So Surreal [0:03:07.19]
11. It's You [0:02:36.55]
12. What I'm Like [0:03:20.03]
13. I Won't Worry [0:03:40.13]
 
Лог создания рипа
Exact Audio Copy V1.0 beta 3 from 29. August 2011
Отчёт EAC об извлечении, выполненном 7. апреля 2015, 22:05
Tuomo / My Thing
Дисковод: ASUS DRW-1814BLT Adapter: 4 ID: 0
Режим чтения : Достоверность
Использование точного потока : Да
Отключение кэша аудио : Да
Использование указателей C2 : Нет
Коррекция смещения при чтении : 6
Способность читать области Lead-in и Lead-out : Нет
Заполнение пропущенных сэмплов тишиной : Да
Удаление блоков с тишиной в начале и конце : Нет
При вычислениях CRC использовались нулевые сэмплы : Да
Интерфейс : Встроенный Win32-интерфейс для Win NT/2000
Обработка зазоров : Добавлено к предыдущему треку
Выходной формат : Пользовательский кодировщик
Выбранный битрейт : 128 kBit/s
Качество : Высокий
Добавление ID3-тега : Нет
Утилита сжатия : C:\Program Files\Exact Audio Copy\Flac\flac.exe
Дополнительные параметры : -V -8 -T "Genre=%genre%" -T "Artist=%artist%" -T "Title=%title%" -T "Album=%albumtitle%" -T "Date=%year%" -T "Tracknumber=%tracknr%" -T "Comment=EAC1.0b2 FLAC -8" %source%
TOC извлечённого CD
Трек | Старт | Длительность | Начальный сектор | Конечный сектор
---------------------------------------------------------------------
1 | 0:00.00 | 2:47.00 | 0 | 12524
2 | 2:47.00 | 3:43.11 | 12525 | 29260
3 | 6:30.11 | 4:36.34 | 29261 | 49994
4 | 11:06.45 | 2:41.01 | 49995 | 62070
5 | 13:47.46 | 3:14.02 | 62071 | 76622
6 | 17:01.48 | 3:42.69 | 76623 | 93341
7 | 20:44.42 | 2:48.29 | 93342 | 105970
8 | 23:32.71 | 4:18.73 | 105971 | 125393
9 | 27:51.69 | 6:37.57 | 125394 | 155225
10 | 34:29.51 | 3:07.19 | 155226 | 169269
11 | 37:36.70 | 2:36.55 | 169270 | 181024
12 | 40:13.50 | 3:20.03 | 181025 | 196027
13 | 43:33.53 | 3:40.13 | 196028 | 212540
Трек 1
Имя файла R:\Раздача 43\Tuomo - 2007 - My Thing\01 My Wish.wav
Длина предзазора 0:00:02.00
Пиковый уровень 98.3 %
Скорость извлечения 3.3 X
Качество трека 99.9 %
CRC теста 52D5CD1C
CRC копии 52D5CD1C
Точное извлечение (достоверность 3) [FD48909F] (AR v2)
Копирование... OK
Трек 2
Имя файла R:\Раздача 43\Tuomo - 2007 - My Thing\02 My Thing.wav
Пиковый уровень 98.8 %
Скорость извлечения 5.4 X
Качество трека 100.0 %
CRC теста 0F25A461
CRC копии 0F25A461
Точное извлечение (достоверность 3) [AB0884E3] (AR v2)
Копирование... OK
Трек 3
Имя файла R:\Раздача 43\Tuomo - 2007 - My Thing\03 Since Or Before.wav
Пиковый уровень 98.8 %
Скорость извлечения 6.1 X
Качество трека 100.0 %
CRC теста F7B0CFF4
CRC копии F7B0CFF4
Точное извлечение (достоверность 3) [B7DFDD0C] (AR v2)
Копирование... OK
Трек 4
Имя файла R:\Раздача 43\Tuomo - 2007 - My Thing\04 True Friend.wav
Пиковый уровень 98.7 %
Скорость извлечения 4.2 X
Качество трека 99.9 %
CRC теста 8D5DCC3B
CRC копии 8D5DCC3B
Точное извлечение (достоверность 3) [A77F6DE4] (AR v2)
Копирование... OK
Трек 5
Имя файла R:\Раздача 43\Tuomo - 2007 - My Thing\05 Don't Take It Too Hard.wav
Длина предзазора 0:00:01.62
Пиковый уровень 98.8 %
Скорость извлечения 6.5 X
Качество трека 100.0 %
CRC теста 7B5BFC1B
CRC копии 7B5BFC1B
Точное извлечение (достоверность 3) [95E210FD] (AR v2)
Копирование... OK
Трек 6
Имя файла R:\Раздача 43\Tuomo - 2007 - My Thing\06 26.wav
Пиковый уровень 98.6 %
Скорость извлечения 6.9 X
Качество трека 100.0 %
CRC теста 560BDB95
CRC копии 560BDB95
Точное извлечение (достоверность 3) [6208A602] (AR v2)
Копирование... OK
Трек 7
Имя файла R:\Раздача 43\Tuomo - 2007 - My Thing\07 Puddle Of Love.wav
Пиковый уровень 98.6 %
Скорость извлечения 6.9 X
Качество трека 100.0 %
CRC теста F160DE6F
CRC копии F160DE6F
Точное извлечение (достоверность 3) [D2E972CE] (AR v2)
Копирование... OK
Трек 8
Имя файла R:\Раздача 43\Tuomo - 2007 - My Thing\08 Sorry When I'm Gone.wav
Пиковый уровень 91.5 %
Скорость извлечения 5.8 X
Качество трека 99.9 %
CRC теста 41144561
CRC копии 41144561
Точное извлечение (достоверность 3) [8C970538] (AR v2)
Копирование... OK
Трек 9
Имя файла R:\Раздача 43\Tuomo - 2007 - My Thing\09 Ballroom Girl.wav
Пиковый уровень 98.8 %
Скорость извлечения 6.7 X
Качество трека 99.9 %
CRC теста AC451486
CRC копии AC451486
Точное извлечение (достоверность 3) [9FD32DBC] (AR v2)
Копирование... OK
Трек 10
Имя файла R:\Раздача 43\Tuomo - 2007 - My Thing\10 So Surreal.wav
Пиковый уровень 98.8 %
Скорость извлечения 5.9 X
Качество трека 99.9 %
CRC теста 4EFAC29F
CRC копии 4EFAC29F
Точное извлечение (достоверность 3) [0EDC6812] (AR v2)
Копирование... OK
Трек 11
Имя файла R:\Раздача 43\Tuomo - 2007 - My Thing\11 It's You.wav
Пиковый уровень 94.9 %
Скорость извлечения 8.0 X
Качество трека 100.0 %
CRC теста 699317FE
CRC копии 699317FE
Точное извлечение (достоверность 3) [13212FFF] (AR v2)
Копирование... OK
Трек 12
Имя файла R:\Раздача 43\Tuomo - 2007 - My Thing\12 What I'm Like.wav
Пиковый уровень 98.6 %
Скорость извлечения 8.6 X
Качество трека 100.0 %
CRC теста 93677C4B
CRC копии 93677C4B
Точное извлечение (достоверность 3) [16C90198] (AR v2)
Копирование... OK
Трек 13
Имя файла R:\Раздача 43\Tuomo - 2007 - My Thing\13 I Won't Worry.wav
Пиковый уровень 98.8 %
Скорость извлечения 8.9 X
Качество трека 100.0 %
CRC теста 126C1CC0
CRC копии 126C1CC0
Точное извлечение (достоверность 3) [7560CB95] (AR v2)
Копирование... OK
Все треки извлечены точно
Ошибок не произошло
Конец отчёта
==== Контрольная сумма отчёта 20228AAD49165D881E9117DEC7AE92DDC278F0961528CE0EDA2DD4EFE287850D ====
 
Содержание индексной карты (.CUE)
REM GENRE Soul
REM DATE 2007
REM DISCID AA0B110D
REM COMMENT "ExactAudioCopy v1.0b3"
PERFORMER "Tuomo"
TITLE "My Thing"
FILE "01 My Wish.wav" WAVE
TRACK 01 AUDIO
TITLE "My Wish"
PERFORMER "Tuomo"
ISRC >f<=F0700010
INDEX 01 00:00:00
FILE "02 My Thing.wav" WAVE
TRACK 02 AUDIO
TITLE "My Thing"
PERFORMER "Tuomo"
ISRC >f<=F0700011
INDEX 01 00:00:00
FILE "03 Since Or Before.wav" WAVE
TRACK 03 AUDIO
TITLE "Since Or Before"
PERFORMER "Tuomo"
ISRC >f<=F0700012
INDEX 01 00:00:00
FILE "04 True Friend.wav" WAVE
TRACK 04 AUDIO
TITLE "True Friend"
PERFORMER "Tuomo"
ISRC >f<=F0700012
INDEX 01 00:00:00
TRACK 05 AUDIO
TITLE "Don't Take It Too Hard"
PERFORMER "Tuomo"
ISRC >f<=F0700014
INDEX 00 02:39:14
FILE "05 Don't Take It Too Hard.wav" WAVE
INDEX 01 00:00:00
FILE "06 26.wav" WAVE
TRACK 06 AUDIO
TITLE "26"
PERFORMER "Tuomo"
ISRC >f<=F0700015
INDEX 01 00:00:00
FILE "07 Puddle Of Love.wav" WAVE
TRACK 07 AUDIO
TITLE "Puddle Of Love"
PERFORMER "Tuomo"
ISRC >f<=F0700016
INDEX 01 00:00:00
FILE "08 Sorry When I'm Gone.wav" WAVE
TRACK 08 AUDIO
TITLE "Sorry When I'm Gone"
PERFORMER "Tuomo"
ISRC >f<=F0700017
INDEX 01 00:00:00
FILE "09 Ballroom Girl.wav" WAVE
TRACK 09 AUDIO
TITLE "Ballroom Girl"
PERFORMER "Tuomo"
ISRC >f<=F0700017
INDEX 01 00:00:00
FILE "10 So Surreal.wav" WAVE
TRACK 10 AUDIO
TITLE "So Surreal"
PERFORMER "Tuomo"
ISRC >f<=F0700019
INDEX 01 00:00:00
FILE "11 It's You.wav" WAVE
TRACK 11 AUDIO
TITLE "It's You"
PERFORMER "Tuomo"
ISRC >f<=F0700020
INDEX 01 00:00:00
FILE "12 What I'm Like.wav" WAVE
TRACK 12 AUDIO
TITLE "What I'm Like"
PERFORMER "Tuomo"
ISRC >f<=F0700021
INDEX 01 00:00:00
FILE "13 I Won't Worry.wav" WAVE
TRACK 13 AUDIO
TITLE "I Won't Worry"
PERFORMER "Tuomo"
ISRC >f<=F0700021
INDEX 01 00:00:00
Приватный:
Нет (DHT включён)
Размер:
313.40 Мб (328,623,507 байт) » файлов: 20
Участники:
0 раздают, 0 качают (0 участников всего)
Внешние участники:
1 раздают, 0 качают (1 участников всего) [ Обновить ]
Есть вопросы - пишите личное сообщение пользователю M0p94ok.
05:26
105
Нет комментариев. Ваш будет первым!