Поиск

(Funk, Soul, R&B) Average White Band - Person To Person - 1976, (2CD)FLAC (tracks+.cue), lossless

(Funk, Soul, R&B) Average White Band - Person To Person - 1976, (2CD)FLAC (tracks+.cue), lossless
Треклист:
Average White Band / Person To Person
Жанр: Funk, Soul, R&B
Год издания: 1976
Страна исполнителя (группы): USA
Аудиокодек: FLAC (*.flac)
Тип рипа: tracks+.cue
Битрейт аудио: lossless
Продолжительность: 0:41:26. + 0:45:39.
Источник (релизер): clustert
Наличие сканов в содержимом раздачи: да
 
CD1
01. Person To Person [0:07:02.68]
02. Cut The Cake [0:05:04.52]
03. If I Ever Loose This Heaven [0:08:15.23]
04. Cloudy [0:06:35.55]
05. T.L.C. [0:14:28.07]
 
Лог создания рипа
Exact Audio Copy V1.0 beta 3 from 29. August 2011
Отчёт EAC об извлечении, выполненном 6. апреля 2015, 21:58
Average White Band / Person To Person (CD-1)
Дисковод: ASUS DRW-1814BLT Adapter: 4 ID: 0
Режим чтения : Достоверность
Использование точного потока : Да
Отключение кэша аудио : Да
Использование указателей C2 : Нет
Коррекция смещения при чтении : 6
Способность читать области Lead-in и Lead-out : Нет
Заполнение пропущенных сэмплов тишиной : Да
Удаление блоков с тишиной в начале и конце : Нет
При вычислениях CRC использовались нулевые сэмплы : Да
Интерфейс : Встроенный Win32-интерфейс для Win NT/2000
Обработка зазоров : Добавлено к предыдущему треку
Выходной формат : Пользовательский кодировщик
Выбранный битрейт : 128 kBit/s
Качество : Высокий
Добавление ID3-тега : Нет
Утилита сжатия : C:\Program Files\Exact Audio Copy\Flac\flac.exe
Дополнительные параметры : -V -8 -T "Genre=%genre%" -T "Artist=%artist%" -T "Title=%title%" -T "Album=%albumtitle%" -T "Date=%year%" -T "Tracknumber=%tracknr%" -T "Comment=EAC1.0b2 FLAC -8" %source%
TOC извлечённого CD
Трек | Старт | Длительность | Начальный сектор | Конечный сектор
---------------------------------------------------------------------
1 | 0:00.00 | 7:02.68 | 0 | 31717
2 | 7:02.68 | 5:04.52 | 31718 | 54569
3 | 12:07.45 | 8:15.23 | 54570 | 91717
4 | 20:22.68 | 6:35.55 | 91718 | 121397
5 | 26:58.48 | 14:28.07 | 121398 | 186504
Трек 1
Имя файла R:\Раздача 43\Average White Band - 1976 - Person To Person (2CD)\CD1\01 Person To Person.wav
Длина предзазора 0:00:02.00
Пиковый уровень 100.0 %
Скорость извлечения 5.6 X
Качество трека 100.0 %
CRC теста AFEF240C
CRC копии AFEF240C
Трек не обнаружен в базе AccurateRip
Копирование... OK
Трек 2
Имя файла R:\Раздача 43\Average White Band - 1976 - Person To Person (2CD)\CD1\02 Cut The Cake.wav
Пиковый уровень 100.0 %
Скорость извлечения 6.3 X
Качество трека 100.0 %
CRC теста F678DAD1
CRC копии F678DAD1
Трек не обнаружен в базе AccurateRip
Копирование... OK
Трек 3
Имя файла R:\Раздача 43\Average White Band - 1976 - Person To Person (2CD)\CD1\03 If I Ever Loose This Heaven.wav
Пиковый уровень 100.0 %
Скорость извлечения 5.9 X
Качество трека 99.9 %
CRC теста BF60CF3C
CRC копии BF60CF3C
Трек не обнаружен в базе AccurateRip
Копирование... OK
Трек 4
Имя файла R:\Раздача 43\Average White Band - 1976 - Person To Person (2CD)\CD1\04 Cloudy.wav
Пиковый уровень 100.0 %
Скорость извлечения 6.3 X
Качество трека 99.9 %
CRC теста 4AE4D50B
CRC копии 4AE4D50B
Трек не обнаружен в базе AccurateRip
Копирование... OK
Трек 5
Имя файла R:\Раздача 43\Average White Band - 1976 - Person To Person (2CD)\CD1\05 T.L.C..wav
Пиковый уровень 100.0 %
Скорость извлечения 9.4 X
Качество трека 100.0 %
CRC теста 88A0F55E
CRC копии 88A0F55E
Трек не обнаружен в базе AccurateRip
Копирование... OK
Ни одного трека нет в базе AccurateRip
Ошибок не произошло
Конец отчёта
==== Контрольная сумма отчёта 108BE907CBDC2592E09E29E00C825683D3C8324E1D2C81D1D539ACB3C8BC8BDA ====
 
Содержание индексной карты (.CUE)
REM GENRE Jazz
REM DATE 1976
REM DISCID 3009B605
REM COMMENT "ExactAudioCopy v1.0b3"
PERFORMER "Average White Band"
TITLE "Person To Person (CD-1)"
FILE "01 Person To Person.wav" WAVE
TRACK 01 AUDIO
TITLE "Person To Person"
PERFORMER "Average White Band"
INDEX 01 00:00:00
FILE "02 Cut The Cake.wav" WAVE
TRACK 02 AUDIO
TITLE "Cut The Cake"
PERFORMER "Average White Band"
INDEX 01 00:00:00
FILE "03 If I Ever Loose This Heaven.wav" WAVE
TRACK 03 AUDIO
TITLE "If I Ever Loose This Heaven"
PERFORMER "Average White Band"
INDEX 01 00:00:00
FILE "04 Cloudy.wav" WAVE
TRACK 04 AUDIO
TITLE "Cloudy"
PERFORMER "Average White Band"
INDEX 01 00:00:00
FILE "05 T.L.C..wav" WAVE
TRACK 05 AUDIO
TITLE "T.L.C."
PERFORMER "Average White Band"
INDEX 01 00:00:00
 
CD2
01. I'm The One [0:04:42.10]
02. Pick Up The Pieces [0:18:21.58]
03. Love Your Life [0:05:03.65]
04. School Boy Crush [0:07:37.70]
05. I Heard It Through The Grapevine [0:09:53.40]
 
Лог создания рипа
Exact Audio Copy V1.0 beta 3 from 29. August 2011
Отчёт EAC об извлечении, выполненном 6. апреля 2015, 22:14
Average White Band / Person To Person (CD-2)
Дисковод: ASUS DRW-1814BLT Adapter: 4 ID: 0
Режим чтения : Достоверность
Использование точного потока : Да
Отключение кэша аудио : Да
Использование указателей C2 : Нет
Коррекция смещения при чтении : 6
Способность читать области Lead-in и Lead-out : Нет
Заполнение пропущенных сэмплов тишиной : Да
Удаление блоков с тишиной в начале и конце : Нет
При вычислениях CRC использовались нулевые сэмплы : Да
Интерфейс : Встроенный Win32-интерфейс для Win NT/2000
Обработка зазоров : Добавлено к предыдущему треку
Выходной формат : Пользовательский кодировщик
Выбранный битрейт : 128 kBit/s
Качество : Высокий
Добавление ID3-тега : Нет
Утилита сжатия : C:\Program Files\Exact Audio Copy\Flac\flac.exe
Дополнительные параметры : -V -8 -T "Genre=%genre%" -T "Artist=%artist%" -T "Title=%title%" -T "Album=%albumtitle%" -T "Date=%year%" -T "Tracknumber=%tracknr%" -T "Comment=EAC1.0b2 FLAC -8" %source%
TOC извлечённого CD
Трек | Старт | Длительность | Начальный сектор | Конечный сектор
---------------------------------------------------------------------
1 | 0:00.00 | 4:42.10 | 0 | 21159
2 | 4:42.10 | 18:21.58 | 21160 | 103792
3 | 23:03.68 | 5:03.65 | 103793 | 126582
4 | 28:07.58 | 7:37.70 | 126583 | 160927
5 | 35:45.53 | 9:53.40 | 160928 | 205442
Трек 1
Имя файла R:\Раздача 43\Average White Band - 1976 - Person To Person (2CD)\CD2\01 I'm The One.wav
Длина предзазора 0:00:02.00
Пиковый уровень 100.0 %
Скорость извлечения 5.2 X
Качество трека 100.0 %
CRC теста 5780A611
CRC копии 5780A611
Трек не обнаружен в базе AccurateRip
Копирование... OK
Трек 2
Имя файла R:\Раздача 43\Average White Band - 1976 - Person To Person (2CD)\CD2\02 Pick Up The Pieces.wav
Пиковый уровень 100.0 %
Скорость извлечения 7.3 X
Качество трека 100.0 %
CRC теста 1B47F079
CRC копии 1B47F079
Трек не обнаружен в базе AccurateRip
Копирование... OK
Трек 3
Имя файла R:\Раздача 43\Average White Band - 1976 - Person To Person (2CD)\CD2\03 Love Your Life.wav
Пиковый уровень 100.0 %
Скорость извлечения 8.0 X
Качество трека 100.0 %
CRC теста 0324B981
CRC копии 0324B981
Трек не обнаружен в базе AccurateRip
Копирование... OK
Трек 4
Имя файла R:\Раздача 43\Average White Band - 1976 - Person To Person (2CD)\CD2\04 School Boy Crush.wav
Пиковый уровень 100.0 %
Скорость извлечения 8.9 X
Качество трека 100.0 %
CRC теста F117A115
CRC копии F117A115
Трек не обнаружен в базе AccurateRip
Копирование... OK
Трек 5
Имя файла R:\Раздача 43\Average White Band - 1976 - Person To Person (2CD)\CD2\05 I Heard It Through The Grapevine.wav
Пиковый уровень 100.0 %
Скорость извлечения 9.8 X
Качество трека 100.0 %
CRC теста 89384CE1
CRC копии 89384CE1
Трек не обнаружен в базе AccurateRip
Копирование... OK
Ни одного трека нет в базе AccurateRip
Ошибок не произошло
Конец отчёта
==== Контрольная сумма отчёта 70B8B97511D1BE1C01C1215AF027C48BAD788E177D6FA97C50CDE78140EEC6CF ====
 
Содержание индексной карты (.CUE)
REM GENRE Jazz
REM DATE 1976
REM DISCID 470AB305
REM COMMENT "ExactAudioCopy v1.0b3"
PERFORMER "Average White Band"
TITLE "Person To Person (CD-2)"
FILE "01 I'm The One.wav" WAVE
TRACK 01 AUDIO
TITLE "I'm The One"
PERFORMER "Average White Band"
INDEX 01 00:00:00
FILE "02 Pick Up The Pieces.wav" WAVE
TRACK 02 AUDIO
TITLE "Pick Up The Pieces"
PERFORMER "Average White Band"
INDEX 01 00:00:00
FILE "03 Love Your Life.wav" WAVE
TRACK 03 AUDIO
TITLE "Love Your Life"
PERFORMER "Average White Band"
INDEX 01 00:00:00
FILE "04 School Boy Crush.wav" WAVE
TRACK 04 AUDIO
TITLE "School Boy Crush"
PERFORMER "Average White Band"
INDEX 01 00:00:00
FILE "05 I Heard It Through The Grapevine.wav" WAVE
TRACK 05 AUDIO
TITLE "I Heard It Through The Grapevine"
PERFORMER "Average White Band"
INDEX 01 00:00:00
Приватный:
Нет (DHT включён)
Размер:
540.68 Мб (566,943,966 байт) » файлов: 26
Участники:
0 раздают, 0 качают (0 участников всего)
Внешние участники:
5 раздают, 1 качают (6 участников всего) [ Обновить ]
No seeders - write personal message to user M0p94ok. Нет сидеров - пишите личное сообщение пользователю M0p94ok.
05:26
72
Нет комментариев. Ваш будет первым!