Поиск

(Soul, R&B) [CD] Patti Austin - End Of A Rainbow - The CTI Masters - 2013, FLAC (tracks+.cue), lossless

(Soul, R&B) [CD] Patti Austin - End Of A Rainbow - The CTI Masters - 2013, FLAC (tracks+.cue), lossless
Треклист:
Patti Austin - End Of A Rainbow - The CTI Masters Жанр: Soul, R&B
Носитель: CD
Год издания: 2013
Издатель (лейбл): Soul Music Records
Номер по каталогу: SMCR-5079
Аудиокодек: FLAC (*.flac)
Тип рипа: tracks+.cue
Битрейт аудио: lossless
Продолжительность: 79:29
Rip by JET 1
Наличие сканов в содержимом раздачи: да
Треклист:
01. Say You Love Me (6:08)
02. In My Life (4:21)
03. You Don't Have To Say You're Sorry (3:38)
04. More Than Yesterday (5:27)
05. Give It Time (3:26)
06. There Is No Time (3:40)
07. What's At The End Of The rainbow (2:51)
08. This Side Of Heaven (3:03)
09. Sweet Sadie The Survivor (6:21)
10. That's Enough For Me (5:45)
11. I Just Want To Know (4:53)
12. Havana Candy (4:32)
13. I Need Somebody (4:27)
14. We're In Love (3:59)
15. Lost In The Stars (5:01)
16. Body Language (5:02)
17. Another Nail For My Heart (3:11)
18. I Want You Tonight (3:41)
 
 
Лог создания рипа
Exact Audio Copy V1.0 beta 3 from 29. August 2011
EAC extraction logfile from 13. April 2015, 13:53
Patti Austin / End Of A Rainbow/CTI Masters
Used drive : GENERIC CDRCB05 Adapter: 4 ID: 0
Read mode : Secure
Utilize accurate stream : Yes
Defeat audio cache : Yes
Make use of C2 pointers : No
Read offset correction : 102
Overread into Lead-In and Lead-Out : No
Fill up missing offset samples with silence : Yes
Delete leading and trailing silent blocks : No
Null samples used in CRC calculations : Yes
Used interface : Native Win32 interface for Win NT & 2000
Gap handling : Appended to previous track
Used output format : User Defined Encoder
Selected bitrate : 1024 kBit/s
Quality : High
Add ID3 tag : No
Command line compressor : C:\Program Files\FLAC\flac.exe
Additional command line options : -8 -V -T "ARTIST=%artist%" -T "TITLE=%title%" -T "ALBUM=%albumtitle%" -T "DATE=%year%" -T "TRACKNUMBER=%tracknr%" -T "GENRE=%genre%" -T "PERFORMER=%albuminterpret%" -T "COMPOSER=%composer%" %haslyrics%--tag-from-file=LYRICS="%lyricsfile%"%haslyrics% -T "ALBUMARTIST=%albumartist%" -T "DISCNUMBER=%cdnumber%" -T "TOTALDISCS=%totalcds%" -T "TOTALTRACKS=%numtracks%" -T "COMMENT=%comment%" %source% -o %dest%
TOC of the extracted CD
Track | Start | Length | Start sector | End sector
---------------------------------------------------------
1 | 0:00.00 | 6:07.50 | 0 | 27574
2 | 6:07.50 | 4:21.16 | 27575 | 47165
3 | 10:28.66 | 3:37.68 | 47166 | 63508
4 | 14:06.59 | 5:26.74 | 63509 | 88032
5 | 19:33.58 | 3:26.29 | 88033 | 103511
6 | 23:00.12 | 3:40.19 | 103512 | 120030
7 | 26:40.31 | 2:51.32 | 120031 | 132887
8 | 29:31.63 | 3:02.49 | 132888 | 146586
9 | 32:34.37 | 6:21.17 | 146587 | 175178
10 | 38:55.54 | 5:45.37 | 175179 | 201090
11 | 44:41.16 | 4:53.23 | 201091 | 223088
12 | 49:34.39 | 4:32.31 | 223089 | 243519
13 | 54:06.70 | 4:27.32 | 243520 | 263576
14 | 58:34.27 | 3:59.07 | 263577 | 281508
15 | 62:33.34 | 5:00.57 | 281509 | 304065
16 | 67:34.16 | 5:02.17 | 304066 | 326732
17 | 72:36.33 | 3:11.34 | 326733 | 341091
18 | 75:47.67 | 3:40.72 | 341092 | 357663
Track 1
Filename H:\0\Patti Austin - End Of A Rainbow-The CTI Masters (2013)\01 - Say You Love Me.wav
Pre-gap length 0:00:02.00
Peak level 100.0 %
Extraction speed 2.6 X
Track quality 100.0 %
Test CRC C2AA53EB
Copy CRC C2AA53EB
Accurately ripped (confidence 3) [557E9BA3] (AR v2)
Copy OK
Track 2
Filename H:\0\Patti Austin - End Of A Rainbow-The CTI Masters (2013)\02 - In My Life.wav
Peak level 100.0 %
Extraction speed 2.8 X
Track quality 100.0 %
Test CRC B2D17C62
Copy CRC B2D17C62
Accurately ripped (confidence 3) [546CE0E1] (AR v2)
Copy OK
Track 3
Filename H:\0\Patti Austin - End Of A Rainbow-The CTI Masters (2013)\03 - You Don't Have To Say You're Sorry.wav
Peak level 100.0 %
Extraction speed 2.9 X
Track quality 100.0 %
Test CRC EA2DA63C
Copy CRC EA2DA63C
Accurately ripped (confidence 3) [6560AACC] (AR v2)
Copy OK
Track 4
Filename H:\0\Patti Austin - End Of A Rainbow-The CTI Masters (2013)\04 - More Than Yesterday.wav
Peak level 100.0 %
Extraction speed 2.9 X
Track quality 99.9 %
Test CRC AF081D92
Copy CRC AF081D92
Accurately ripped (confidence 3) [98D3E821] (AR v2)
Copy OK
Track 5
Filename H:\0\Patti Austin - End Of A Rainbow-The CTI Masters (2013)\05 - Give It Time.wav
Peak level 100.0 %
Extraction speed 3.2 X
Track quality 100.0 %
Test CRC AE6DF3A6
Copy CRC AE6DF3A6
Accurately ripped (confidence 3) [1838BFBA] (AR v2)
Copy OK
Track 6
Filename H:\0\Patti Austin - End Of A Rainbow-The CTI Masters (2013)\06 - There Is No Time.wav
Peak level 100.0 %
Extraction speed 3.4 X
Track quality 100.0 %
Test CRC D62F4322
Copy CRC D62F4322
Accurately ripped (confidence 3) [9B47D321] (AR v2)
Copy OK
Track 7
Filename H:\0\Patti Austin - End Of A Rainbow-The CTI Masters (2013)\07 - What's At The End Of The rainbow.wav
Peak level 100.0 %
Extraction speed 3.4 X
Track quality 100.0 %
Test CRC F775F913
Copy CRC F775F913
Accurately ripped (confidence 3) [C465A2AD] (AR v2)
Copy OK
Track 8
Filename H:\0\Patti Austin - End Of A Rainbow-The CTI Masters (2013)\08 - This Side Of Heaven.wav
Peak level 100.0 %
Extraction speed 3.5 X
Track quality 100.0 %
Test CRC 868ACF38
Copy CRC 868ACF38
Accurately ripped (confidence 3) [0E56D34D] (AR v2)
Copy OK
Track 9
Filename H:\0\Patti Austin - End Of A Rainbow-The CTI Masters (2013)\09 - Sweet Sadie The Survivor.wav
Peak level 100.0 %
Extraction speed 4.1 X
Track quality 100.0 %
Test CRC 2BD2C87F
Copy CRC 2BD2C87F
Accurately ripped (confidence 3) [894838E6] (AR v2)
Copy OK
Track 10
Filename H:\0\Patti Austin - End Of A Rainbow-The CTI Masters (2013)\10 - That's Enough For Me.wav
Peak level 100.0 %
Extraction speed 4.3 X
Track quality 100.0 %
Test CRC 383246B9
Copy CRC 383246B9
Accurately ripped (confidence 3) [709771DD] (AR v2)
Copy OK
Track 11
Filename H:\0\Patti Austin - End Of A Rainbow-The CTI Masters (2013)\11 - I Just Want To Know.wav
Peak level 99.9 %
Extraction speed 4.4 X
Track quality 100.0 %
Test CRC C69C9435
Copy CRC C69C9435
Accurately ripped (confidence 3) [6B0FE810] (AR v2)
Copy OK
Track 12
Filename H:\0\Patti Austin - End Of A Rainbow-The CTI Masters (2013)\12 - Havana Candy.wav
Peak level 100.0 %
Extraction speed 4.3 X
Track quality 100.0 %
Test CRC 4987B30F
Copy CRC 4987B30F
Accurately ripped (confidence 3) [06279070] (AR v2)
Copy OK
Track 13
Filename H:\0\Patti Austin - End Of A Rainbow-The CTI Masters (2013)\13 - I Need Somebody.wav
Peak level 100.0 %
Extraction speed 4.5 X
Track quality 100.0 %
Test CRC 7FA02BD6
Copy CRC 7FA02BD6
Accurately ripped (confidence 3) [5BBF7FAE] (AR v2)
Copy OK
Track 14
Filename H:\0\Patti Austin - End Of A Rainbow-The CTI Masters (2013)\14 - We're In Love.wav
Peak level 100.0 %
Extraction speed 4.6 X
Track quality 100.0 %
Test CRC D31B8B4C
Copy CRC D31B8B4C
Accurately ripped (confidence 3) [3460EC98] (AR v2)
Copy OK
Track 15
Filename H:\0\Patti Austin - End Of A Rainbow-The CTI Masters (2013)\15 - Lost In The Stars.wav
Peak level 100.0 %
Extraction speed 4.4 X
Track quality 99.9 %
Test CRC 85D49EA4
Copy CRC 85D49EA4
Accurately ripped (confidence 3) [4F06562E] (AR v2)
Copy OK
Track 16
Filename H:\0\Patti Austin - End Of A Rainbow-The CTI Masters (2013)\16 - Body Language.wav
Peak level 74.9 %
Extraction speed 5.0 X
Track quality 100.0 %
Test CRC B1AC526B
Copy CRC B1AC526B
Accurately ripped (confidence 3) [2C4853A5] (AR v2)
Copy OK
Track 17
Filename H:\0\Patti Austin - End Of A Rainbow-The CTI Masters (2013)\17 - Another Nail For My Heart.wav
Peak level 79.3 %
Extraction speed 4.8 X
Track quality 100.0 %
Test CRC E3053ACB
Copy CRC E3053ACB
Accurately ripped (confidence 3) [5E797AD6] (AR v2)
Copy OK
Track 18
Filename H:\0\Patti Austin - End Of A Rainbow-The CTI Masters (2013)\18 - I Want You Tonight.wav
Peak level 77.8 %
Extraction speed 5.0 X
Track quality 100.0 %
Test CRC 3D67D4B3
Copy CRC 3D67D4B3
Accurately ripped (confidence 3) [120CF606] (AR v2)
Copy OK
All tracks accurately ripped
No errors occurred
End of status report
==== Log checksum 4AB7DF90CB582C24B2760B010D383DE311E53E87E381B37BE59EF3134A9DEED3 ====
 
Содержание индексной карты (.CUE)
REM GENRE Soul
REM DATE 2013
REM DISCID 2512A012
REM COMMENT "ExactAudioCopy v1.0b3"
PERFORMER "Patti Austin"
TITLE "End Of A Rainbow"
FILE "01 - Say You Love Me.wav" WAVE
TRACK 01 AUDIO
TITLE "Say You Love Me"
PERFORMER "Patti Austin"
INDEX 01 00:00:00
FILE "02 - In My Life.wav" WAVE
TRACK 02 AUDIO
TITLE "In My Life"
PERFORMER "Patti Austin"
INDEX 01 00:00:00
FILE "03 - You Don't Have To Say You're Sorry.wav" WAVE
TRACK 03 AUDIO
TITLE "You Don't Have To Say You're Sorry"
PERFORMER "Patti Austin"
INDEX 01 00:00:00
FILE "04 - More Than Yesterday.wav" WAVE
TRACK 04 AUDIO
TITLE "More Than Yesterday"
PERFORMER "Patti Austin"
INDEX 01 00:00:00
FILE "05 - Give It Time.wav" WAVE
TRACK 05 AUDIO
TITLE "Give It Time"
PERFORMER "Patti Austin"
INDEX 01 00:00:00
FILE "06 - There Is No Time.wav" WAVE
TRACK 06 AUDIO
TITLE "There Is No Time"
PERFORMER "Patti Austin"
INDEX 01 00:00:00
FILE "07 - What's At The End Of The rainbow.wav" WAVE
TRACK 07 AUDIO
TITLE "What's At The End Of The rainbow"
PERFORMER "Patti Austin"
INDEX 01 00:00:00
FILE "08 - This Side Of Heaven.wav" WAVE
TRACK 08 AUDIO
TITLE "This Side Of Heaven"
PERFORMER "Patti Austin"
INDEX 01 00:00:00
FILE "09 - Sweet Sadie The Survivor.wav" WAVE
TRACK 09 AUDIO
TITLE "Sweet Sadie The Survivor"
PERFORMER "Patti Austin"
INDEX 01 00:00:00
FILE "10 - That's Enough For Me.wav" WAVE
TRACK 10 AUDIO
TITLE "That's Enough For Me"
PERFORMER "Patti Austin"
INDEX 01 00:00:00
FILE "11 - I Just Want To Know.wav" WAVE
TRACK 11 AUDIO
TITLE "I Just Want To Know"
PERFORMER "Patti Austin"
INDEX 01 00:00:00
FILE "12 - Havana Candy.wav" WAVE
TRACK 12 AUDIO
TITLE "Havana Candy"
PERFORMER "Patti Austin"
INDEX 01 00:00:00
FILE "13 - I Need Somebody.wav" WAVE
TRACK 13 AUDIO
TITLE "I Need Somebody"
PERFORMER "Patti Austin"
INDEX 01 00:00:00
FILE "14 - We're In Love.wav" WAVE
TRACK 14 AUDIO
TITLE "We're In Love"
PERFORMER "Patti Austin"
INDEX 01 00:00:00
FILE "15 - Lost In The Stars.wav" WAVE
TRACK 15 AUDIO
TITLE "Lost In The Stars"
PERFORMER "Patti Austin"
INDEX 01 00:00:00
FILE "16 - Body Language.wav" WAVE
TRACK 16 AUDIO
TITLE "Body Language"
PERFORMER "Patti Austin"
INDEX 01 00:00:00
FILE "17 - Another Nail For My Heart.wav" WAVE
TRACK 17 AUDIO
TITLE "Another Nail For My Heart"
PERFORMER "Patti Austin"
INDEX 01 00:00:00
FILE "18 - I Want You Tonight.wav" WAVE
TRACK 18 AUDIO
TITLE "I Want You Tonight"
PERFORMER "Patti Austin"
INDEX 01 00:00:00
Приватный:
Нет (DHT включён)
Размер:
743.19 Мб (779,290,728 байт) » файлов: 35
Участники:
0 раздают, 0 качают (0 участников всего)
Внешние участники:
--- [ Обновить ]
Есть вопросы - пишите личное сообщение пользователю M0p94ok.
05:25
69
Нет комментариев. Ваш будет первым!