Поиск

(Funk, Soul) [CD] Rodney Franklin - Skydance (1985) - 2012, FLAC (tracks+.cue), lossless

(Funk, Soul) [CD] Rodney Franklin - Skydance (1985) - 2012, FLAC (tracks+.cue), lossless
Треклист:
Rodney Franklin - Skydance (1985) Жанр: Funk, Soul
Носитель: CD
Год издания: 2012
Издатель (лейбл): Funky Town Grooves
Номер по каталогу: FTG-278
Аудиокодек: FLAC (*.flac)
Тип рипа: tracks+.cue
Битрейт аудио: lossless
Продолжительность: 40:01
Rip by JET 1
Наличие сканов в содержимом раздачи: да
Треклист:
01. Fiesta (7:36)
02. Destiny (5:06)
03. Song For You (8:55)
04. Children (5:25)
05. One From The Heart (6:46)
06. Skydance (6:14)
 
 
Лог создания рипа
Exact Audio Copy V1.0 beta 3 from 29. August 2011
EAC extraction logfile from 28. November 2014, 12:02
Rodney Franklin / Skydance
Used drive : ATAPI DVD A DH16A6L-C Adapter: 2 ID: 0
Read mode : Secure
Utilize accurate stream : Yes
Defeat audio cache : Yes
Make use of C2 pointers : No
Read offset correction : 6
Overread into Lead-In and Lead-Out : No
Fill up missing offset samples with silence : Yes
Delete leading and trailing silent blocks : No
Null samples used in CRC calculations : Yes
Used interface : Native Win32 interface for Win NT & 2000
Gap handling : Appended to previous track
Used output format : User Defined Encoder
Selected bitrate : 1024 kBit/s
Quality : High
Add ID3 tag : No
Command line compressor : C:\Program Files\FLAC\flac.exe
Additional command line options : -8 -V -T "ARTIST=%artist%" -T "TITLE=%title%" -T "ALBUM=%albumtitle%" -T "DATE=%year%" -T "TRACKNUMBER=%tracknr%" -T "GENRE=%genre%" -T "PERFORMER=%albuminterpret%" -T "COMPOSER=%composer%" %haslyrics%--tag-from-file=LYRICS="%lyricsfile%"%haslyrics% -T "ALBUMARTIST=%albumartist%" -T "DISCNUMBER=%cdnumber%" -T "TOTALDISCS=%totalcds%" -T "TOTALTRACKS=%numtracks%" -T "COMMENT=%comment%" %source% -o %dest%
TOC of the extracted CD
Track | Start | Length | Start sector | End sector
---------------------------------------------------------
1 | 0:00.00 | 7:35.47 | 0 | 34171
2 | 7:35.47 | 5:05.62 | 34172 | 57108
3 | 12:41.34 | 8:54.38 | 57109 | 97196
4 | 21:35.72 | 5:24.64 | 97197 | 121560
5 | 27:00.61 | 6:45.69 | 121561 | 152004
6 | 33:46.55 | 6:14.10 | 152005 | 180064
Track 1
Filename F:\0\!!!!!POST!!!!\Rodney Franklin ‎- Skydance (1985) [2012 FTG Reissue]\01 - Fiesta.wav
Pre-gap length 0:00:02.00
Peak level 99.6 %
Extraction speed 4.3 X
Track quality 100.0 %
Test CRC 6ED3F32F
Copy CRC 6ED3F32F
Accurately ripped (confidence 2) [B9825ED4] (AR v2)
Copy OK
Track 2
Filename F:\0\!!!!!POST!!!!\Rodney Franklin ‎- Skydance (1985) [2012 FTG Reissue]\02 - Destiny.wav
Peak level 99.6 %
Extraction speed 4.7 X
Track quality 100.0 %
Test CRC 1EA08D4D
Copy CRC 1EA08D4D
Accurately ripped (confidence 2) [003C7E32] (AR v2)
Copy OK
Track 3
Filename F:\0\!!!!!POST!!!!\Rodney Franklin ‎- Skydance (1985) [2012 FTG Reissue]\03 - Song For You.wav
Peak level 99.6 %
Extraction speed 4.9 X
Track quality 99.9 %
Test CRC D3CBDBA8
Copy CRC D3CBDBA8
Accurately ripped (confidence 2) [98A65D89] (AR v2)
Copy OK
Track 4
Filename F:\0\!!!!!POST!!!!\Rodney Franklin ‎- Skydance (1985) [2012 FTG Reissue]\04 - Children.wav
Peak level 99.6 %
Extraction speed 5.8 X
Track quality 100.0 %
Test CRC CE22A24A
Copy CRC CE22A24A
Accurately ripped (confidence 2) [8BB5D0AE] (AR v2)
Copy OK
Track 5
Filename F:\0\!!!!!POST!!!!\Rodney Franklin ‎- Skydance (1985) [2012 FTG Reissue]\05 - One From The Heart.wav
Peak level 99.6 %
Extraction speed 6.2 X
Track quality 100.0 %
Test CRC 504AFA1F
Copy CRC 504AFA1F
Accurately ripped (confidence 2) [C10B9387] (AR v2)
Copy OK
Track 6
Filename F:\0\!!!!!POST!!!!\Rodney Franklin ‎- Skydance (1985) [2012 FTG Reissue]\06 - Skydance.wav
Peak level 99.6 %
Extraction speed 5.7 X
Track quality 99.9 %
Test CRC 921F1581
Copy CRC 921F1581
Accurately ripped (confidence 2) [2C941457] (AR v2)
Copy OK
All tracks accurately ripped
No errors occurred
End of status report
==== Log checksum DC7B2DEDF9179F23104D42526CE6A9D04BDAF7CEBA388F84537712214775515B ====
 
Содержание индексной карты (.CUE)
REM GENRE Funk
REM DATE 1985
REM DISCID 4C096006
REM COMMENT "ExactAudioCopy v1.0b3"
PERFORMER "Rodney Franklin"
TITLE "Skydance"
FILE "01 - Fiesta.wav" WAVE
TRACK 01 AUDIO
TITLE "Fiesta"
PERFORMER "Rodney Franklin"
INDEX 01 00:00:00
FILE "02 - Destiny.wav" WAVE
TRACK 02 AUDIO
TITLE "Destiny"
PERFORMER "Rodney Franklin"
INDEX 01 00:00:00
FILE "03 - Song For You.wav" WAVE
TRACK 03 AUDIO
TITLE "Song For You"
PERFORMER "Rodney Franklin"
INDEX 01 00:00:00
FILE "04 - Children.wav" WAVE
TRACK 04 AUDIO
TITLE "Children"
PERFORMER "Rodney Franklin"
INDEX 01 00:00:00
FILE "05 - One From The Heart.wav" WAVE
TRACK 05 AUDIO
TITLE "One From The Heart"
PERFORMER "Rodney Franklin"
INDEX 01 00:00:00
FILE "06 - Skydance.wav" WAVE
TRACK 06 AUDIO
TITLE "Skydance"
PERFORMER "Rodney Franklin"
INDEX 01 00:00:00
Приватный:
Нет (DHT включён)
Размер:
383.11 Мб (401,722,355 байт) » файлов: 16
Участники:
0 раздают, 0 качают (0 участников всего)
Внешние участники:
1 раздают, 0 качают (1 участников всего) [ Обновить ]
Есть вопросы - пишите личное сообщение пользователю M0p94ok.
05:24
73
Нет комментариев. Ваш будет первым!