Поиск

(Soul, R&B) [CD] Linda Lewis - Reach For The Truth :: Best Of The Reprise Years 1971-1974 - 2002, FLAC (tracks+.cue), lossless

(Soul, R&B) [CD] Linda Lewis - Reach For The Truth :: Best Of The Reprise Years 1971-1974 - 2002, FLAC (tracks+.cue), lossless
Треклист:
Linda Lewis - Reach For The Truth :: Best Of The Reprise Years 1971-1974 Жанр: Soul, R&B
Носитель: CD
Год издания: 2002
Издатель (лейбл): Rhino
Номер по каталогу: 812273601-2
Аудиокодек: FLAC (*.flac)
Тип рипа: tracks+.cue
Битрейт аудио: lossless
Продолжительность: 72:01
Источник (релизер): What.cd (evilweasel)
Наличие сканов в содержимом раздачи: нет
Треклист:
01. Red Light Ladies (2:22)
02. Old Smokey (3:20)
03. Donkey's Years (2:51)
04. I Dunno (3:31)
05. Gladly Give You My Hand (2:42)
06. Spring Song (2:11)
07. Reach For The Truth (4:50)
08. Sideway Shuffle (3:15)
09. On The Stage (3:46)
10. Fathoms Deep (3:52)
11. Guffer (4:26)
12. Waterbaby (3:52)
13. Wise Eyes (2:48)
14. I'm In Love Again (3:47)
15. Goodbye Joanna (3:12)
16. Hampstead Way (3:43)
17. Feeling Feeling (3:07)
18. Funky Kitchen (1:06)
19. Rock A Doodle Doo (3:25)
20. What Are You Asking Me For (2:51)
21. We Can Win (2:49)
22. Moles (1:37)
23. Red Light Ladies (Demo) (2:41)
 
 
Лог создания рипа
Exact Audio Copy V1.0 beta 1 from 15. November 2010
EAC extraction logfile from 12. January 2011, 19:49
Linda Lewis / Reach For The Truth
Used drive : HL-DT-STDVDRAM GSA-H10N Adapter: 2 ID: 0
Read mode : Secure
Utilize accurate stream : Yes
Defeat audio cache : Yes
Make use of C2 pointers : No
Read offset correction : 667
Overread into Lead-In and Lead-Out : No
Fill up missing offset samples with silence : Yes
Delete leading and trailing silent blocks : No
Null samples used in CRC calculations : Yes
Used interface : Native Win32 interface for Win NT & 2000
Gap handling : Appended to previous track
Used output format : User Defined Encoder
Selected bitrate : 320 kBit/s
Quality : High
Add ID3 tag : No
Command line compressor : C:\Program Files\Exact Audio Copy\Flac\flac.exe
Additional command line options : -V -8 -T "artist=%a" -T "title=%t" -T "album=%g" -T "date=%y" -T "tracknumber=%n" -T "genre=%m" %s
TOC of the extracted CD
Track | Start | Length | Start sector | End sector
---------------------------------------------------------
1 | 0:00.00 | 2:22.30 | 0 | 10679
2 | 2:22.30 | 3:19.52 | 10680 | 25656
3 | 5:42.07 | 2:50.63 | 25657 | 38469
4 | 8:32.70 | 3:30.57 | 38470 | 54276
5 | 12:03.52 | 2:42.20 | 54277 | 66446
6 | 14:45.72 | 2:10.43 | 66447 | 76239
7 | 16:56.40 | 4:49.67 | 76240 | 97981
8 | 21:46.32 | 3:15.05 | 97982 | 112611
9 | 25:01.37 | 3:45.40 | 112612 | 129526
10 | 28:47.02 | 3:52.20 | 129527 | 146946
11 | 32:39.22 | 4:25.73 | 146947 | 166894
12 | 37:05.20 | 3:51.40 | 166895 | 184259
13 | 40:56.60 | 2:47.40 | 184260 | 196824
14 | 43:44.25 | 3:46.65 | 196825 | 213839
15 | 47:31.15 | 3:12.00 | 213840 | 228239
16 | 50:43.15 | 3:43.37 | 228240 | 245001
17 | 54:26.52 | 3:06.55 | 245002 | 259006
18 | 57:33.32 | 1:06.05 | 259007 | 263961
19 | 58:39.37 | 3:24.43 | 263962 | 279304
20 | 62:04.05 | 2:50.47 | 279305 | 292101
21 | 64:54.52 | 2:49.28 | 292102 | 304804
22 | 67:44.05 | 1:36.45 | 304805 | 312049
23 | 69:20.50 | 2:40.60 | 312050 | 324109
Track 1
Filename C:\EAC Rips\Linda Lewis\Reach For The Truth [FLAC]\01 - Red Light Ladies.wav
Pre-gap length 0:00:02.00
Peak level 94.1 %
Extraction speed 3.2 X
Track quality 100.0 %
Test CRC DBCC2008
Copy CRC DBCC2008
Accurately ripped (confidence 3) [16A96A1C]
Copy OK
Track 2
Filename C:\EAC Rips\Linda Lewis\Reach For The Truth [FLAC]\02 - Old Smokey.wav
Pre-gap length 0:00:02.64
Peak level 93.5 %
Extraction speed 3.8 X
Track quality 100.0 %
Test CRC DC96903B
Copy CRC DC96903B
Accurately ripped (confidence 3) [F95FC824]
Copy OK
Track 3
Filename C:\EAC Rips\Linda Lewis\Reach For The Truth [FLAC]\03 - Donkey's Years.wav
Pre-gap length 0:00:02.62
Peak level 90.3 %
Extraction speed 3.9 X
Track quality 100.0 %
Test CRC 685324CB
Copy CRC 685324CB
Accurately ripped (confidence 2) [2D4694AF]
Copy OK
Track 4
Filename C:\EAC Rips\Linda Lewis\Reach For The Truth [FLAC]\04 - I Dunno.wav
Peak level 97.7 %
Extraction speed 4.2 X
Track quality 100.0 %
Test CRC 60551956
Copy CRC 60551956
Accurately ripped (confidence 3) [6A5A40D5]
Copy OK
Track 5
Filename C:\EAC Rips\Linda Lewis\Reach For The Truth [FLAC]\05 - Gladly Give You My Hand.wav
Pre-gap length 0:00:02.62
Peak level 94.3 %
Extraction speed 4.2 X
Track quality 100.0 %
Test CRC A58344B2
Copy CRC A58344B2
Accurately ripped (confidence 3) [FE0E1DAC]
Copy OK
Track 6
Filename C:\EAC Rips\Linda Lewis\Reach For The Truth [FLAC]\06 - Spring Song.wav
Pre-gap length 0:00:02.62
Peak level 90.3 %
Extraction speed 4.3 X
Track quality 100.0 %
Test CRC 4E06D1F0
Copy CRC 4E06D1F0
Accurately ripped (confidence 3) [3A9ACED4]
Copy OK
Track 7
Filename C:\EAC Rips\Linda Lewis\Reach For The Truth [FLAC]\07 - Reach For The Truth.wav
Pre-gap length 0:00:02.64
Peak level 96.7 %
Extraction speed 4.2 X
Track quality 99.9 %
Test CRC D780A440
Copy CRC D780A440
Accurately ripped (confidence 3) [FCA6A219]
Copy OK
Track 8
Filename C:\EAC Rips\Linda Lewis\Reach For The Truth [FLAC]\08 - Sideway Shuffle.wav
Pre-gap length 0:00:02.62
Peak level 93.1 %
Extraction speed 5.2 X
Track quality 100.0 %
Test CRC CBAE7487
Copy CRC CBAE7487
Accurately ripped (confidence 3) [B07D1810]
Copy OK
Track 9
Filename C:\EAC Rips\Linda Lewis\Reach For The Truth [FLAC]\09 - On The Stage.wav
Pre-gap length 0:00:02.62
Peak level 87.0 %
Extraction speed 5.5 X
Track quality 100.0 %
Test CRC BEEB398B
Copy CRC BEEB398B
Accurately ripped (confidence 3) [A8FC1EDA]
Copy OK
Track 10
Filename C:\EAC Rips\Linda Lewis\Reach For The Truth [FLAC]\10 - Fathoms Deep.wav
Pre-gap length 0:00:02.62
Peak level 95.0 %
Extraction speed 5.7 X
Track quality 100.0 %
Test CRC 8F27D538
Copy CRC 8F27D538
Accurately ripped (confidence 3) [7F2E1817]
Copy OK
Track 11
Filename C:\EAC Rips\Linda Lewis\Reach For The Truth [FLAC]\11 - Guffer.wav
Pre-gap length 0:00:02.62
Peak level 93.0 %
Extraction speed 4.9 X
Track quality 99.9 %
Test CRC 5D309911
Copy CRC 5D309911
Accurately ripped (confidence 3) [B4B554D3]
Copy OK
Track 12
Filename C:\EAC Rips\Linda Lewis\Reach For The Truth [FLAC]\12 - Waterbaby.wav
Pre-gap length 0:00:02.64
Peak level 92.0 %
Extraction speed 6.1 X
Track quality 100.0 %
Test CRC 023D95E8
Copy CRC 023D95E8
Accurately ripped (confidence 3) [7B3D4AAB]
Copy OK
Track 13
Filename C:\EAC Rips\Linda Lewis\Reach For The Truth [FLAC]\13 - Wise Eyes.wav
Pre-gap length 0:00:02.64
Peak level 85.9 %
Extraction speed 6.1 X
Track quality 100.0 %
Test CRC EE23CEC0
Copy CRC EE23CEC0
Accurately ripped (confidence 3) [484A8BE9]
Copy OK
Track 14
Filename C:\EAC Rips\Linda Lewis\Reach For The Truth [FLAC]\14 - I'm In Love Again.wav
Pre-gap length 0:00:02.64
Peak level 96.6 %
Extraction speed 6.5 X
Track quality 100.0 %
Test CRC 3A73594D
Copy CRC 3A73594D
Accurately ripped (confidence 3) [9161E65C]
Copy OK
Track 15
Filename C:\EAC Rips\Linda Lewis\Reach For The Truth [FLAC]\15 - Goodbye Joanna.wav
Pre-gap length 0:00:02.64
Peak level 95.6 %
Extraction speed 6.5 X
Track quality 100.0 %
Test CRC E5F54BFC
Copy CRC E5F54BFC
Accurately ripped (confidence 3) [0C9D7458]
Copy OK
Track 16
Filename C:\EAC Rips\Linda Lewis\Reach For The Truth [FLAC]\16 - Hampstead Way.wav
Pre-gap length 0:00:02.64
Peak level 97.7 %
Extraction speed 5.3 X
Track quality 99.9 %
Test CRC 8261704C
Copy CRC 8261704C
Accurately ripped (confidence 3) [88CCA751]
Copy OK
Track 17
Filename C:\EAC Rips\Linda Lewis\Reach For The Truth [FLAC]\17 - Feeling Feeling.wav
Pre-gap length 0:00:02.62
Peak level 97.7 %
Extraction speed 6.7 X
Track quality 100.0 %
Test CRC 68B8A28A
Copy CRC 68B8A28A
Accurately ripped (confidence 3) [5FABB1BC]
Copy OK
Track 18
Filename C:\EAC Rips\Linda Lewis\Reach For The Truth [FLAC]\18 - Funky Kitchen.wav
Pre-gap length 0:00:02.60
Peak level 84.8 %
Extraction speed 3.0 X
Track quality 99.8 %
Test CRC 596DE921
Copy CRC 596DE921
Accurately ripped (confidence 3) [1E7B1919]
Copy OK
Track 19
Filename C:\EAC Rips\Linda Lewis\Reach For The Truth [FLAC]\19 - Rock A Doodle Doo.wav
Pre-gap length 0:00:02.62
Peak level 92.6 %
Extraction speed 6.9 X
Track quality 100.0 %
Test CRC 3C582F0C
Copy CRC 3C582F0C
Accurately ripped (confidence 3) [6C8DDA40]
Copy OK
Track 20
Filename C:\EAC Rips\Linda Lewis\Reach For The Truth [FLAC]\20 - What Are You Asking Me For.wav
Pre-gap length 0:00:02.60
Peak level 97.7 %
Extraction speed 6.7 X
Track quality 100.0 %
Test CRC E92928D2
Copy CRC E92928D2
Accurately ripped (confidence 3) [CF271DBE]
Copy OK
Track 21
Filename C:\EAC Rips\Linda Lewis\Reach For The Truth [FLAC]\21 - We Can Win.wav
Pre-gap length 0:00:02.62
Peak level 91.9 %
Extraction speed 6.9 X
Track quality 100.0 %
Test CRC 849E46D4
Copy CRC 849E46D4
Accurately ripped (confidence 3) [190FBC43]
Copy OK
Track 22
Filename C:\EAC Rips\Linda Lewis\Reach For The Truth [FLAC]\22 - Moles.wav
Pre-gap length 0:00:02.64
Peak level 87.8 %
Extraction speed 5.9 X
Track quality 100.0 %
Test CRC 83B4FF55
Copy CRC 83B4FF55
Accurately ripped (confidence 3) [1F736244]
Copy OK
Track 23
Filename C:\EAC Rips\Linda Lewis\Reach For The Truth [FLAC]\23 - Red Light Ladies (Demo).wav
Pre-gap length 0:00:02.64
Peak level 93.1 %
Extraction speed 7.1 X
Track quality 100.0 %
Test CRC B8F46AF6
Copy CRC B8F46AF6
Accurately ripped (confidence 3) [C8F5D626]
Copy OK
All tracks accurately ripped
No errors occurred
End of status report
 
Содержание индексной карты (.CUE)
REM GENRE Soul
REM DATE 2002
REM DISCID 4F10E117
REM COMMENT "ExactAudioCopy v1.0b1"
PERFORMER "Linda Lewis"
TITLE "Reach For The Truth"
FILE "01 - Red Light Ladies.flac" WAVE
TRACK 01 AUDIO
TITLE "Red Light Ladies"
PERFORMER "Linda Lewis"
INDEX 01 00:00:00
TRACK 02 AUDIO
TITLE "Old Smokey"
PERFORMER "Linda Lewis"
INDEX 00 02:19:57
FILE "02 - Old Smokey.flac" WAVE
INDEX 01 00:00:00
TRACK 03 AUDIO
TITLE "Donkey's Years"
PERFORMER "Linda Lewis"
INDEX 00 03:17:05
FILE "03 - Donkey's Years.flac" WAVE
INDEX 01 00:00:00
FILE "04 - I Dunno.flac" WAVE
TRACK 04 AUDIO
TITLE "I Dunno"
PERFORMER "Linda Lewis"
INDEX 01 00:00:00
TRACK 05 AUDIO
TITLE "Gladly Give You My Hand"
PERFORMER "Linda Lewis"
INDEX 00 03:28:10
FILE "05 - Gladly Give You My Hand.flac" WAVE
INDEX 01 00:00:00
TRACK 06 AUDIO
TITLE "Spring Song"
PERFORMER "Linda Lewis"
INDEX 00 02:39:48
FILE "06 - Spring Song.flac" WAVE
INDEX 01 00:00:00
TRACK 07 AUDIO
TITLE "Reach For The Truth"
PERFORMER "Linda Lewis"
INDEX 00 02:07:70
FILE "07 - Reach For The Truth.flac" WAVE
INDEX 01 00:00:00
TRACK 08 AUDIO
TITLE "Sideway Shuffle"
PERFORMER "Linda Lewis"
INDEX 00 04:47:20
FILE "08 - Sideway Shuffle.flac" WAVE
INDEX 01 00:00:00
TRACK 09 AUDIO
TITLE "On The Stage"
PERFORMER "Linda Lewis"
INDEX 00 03:12:33
FILE "09 - On The Stage.flac" WAVE
INDEX 01 00:00:00
TRACK 10 AUDIO
TITLE "Fathoms Deep"
PERFORMER "Linda Lewis"
INDEX 00 03:42:68
FILE "10 - Fathoms Deep.flac" WAVE
INDEX 01 00:00:00
TRACK 11 AUDIO
TITLE "Guffer"
PERFORMER "Linda Lewis"
INDEX 00 03:49:48
FILE "11 - Guffer.flac" WAVE
INDEX 01 00:00:00
TRACK 12 AUDIO
TITLE "Waterbaby"
PERFORMER "Linda Lewis"
INDEX 00 04:23:25
FILE "12 - Waterbaby.flac" WAVE
INDEX 01 00:00:00
TRACK 13 AUDIO
TITLE "Wise Eyes"
PERFORMER "Linda Lewis"
INDEX 00 03:48:67
FILE "13 - Wise Eyes.flac" WAVE
INDEX 01 00:00:00
TRACK 14 AUDIO
TITLE "I'm In Love Again"
PERFORMER "Linda Lewis"
INDEX 00 02:44:67
FILE "14 - I'm In Love Again.flac" WAVE
INDEX 01 00:00:00
TRACK 15 AUDIO
TITLE "Goodbye Joanna"
PERFORMER "Linda Lewis"
INDEX 00 03:44:17
FILE "15 - Goodbye Joanna.flac" WAVE
INDEX 01 00:00:00
TRACK 16 AUDIO
TITLE "Hampstead Way"
PERFORMER "Linda Lewis"
INDEX 00 03:09:27
FILE "16 - Hampstead Way.flac" WAVE
INDEX 01 00:00:00
TRACK 17 AUDIO
TITLE "Feeling Feeling"
PERFORMER "Linda Lewis"
INDEX 00 03:40:65
FILE "17 - Feeling Feeling.flac" WAVE
INDEX 01 00:00:00
TRACK 18 AUDIO
TITLE "Funky Kitchen"
PERFORMER "Linda Lewis"
INDEX 00 03:04:10
FILE "18 - Funky Kitchen.flac" WAVE
INDEX 01 00:00:00
TRACK 19 AUDIO
TITLE "Rock A Doodle Doo"
PERFORMER "Linda Lewis"
INDEX 00 01:03:33
FILE "19 - Rock A Doodle Doo.flac" WAVE
INDEX 01 00:00:00
TRACK 20 AUDIO
TITLE "What Are You Asking Me For"
PERFORMER "Linda Lewis"
INDEX 00 03:21:73
FILE "20 - What Are You Asking Me For.flac" WAVE
INDEX 01 00:00:00
TRACK 21 AUDIO
TITLE "We Can Win"
PERFORMER "Linda Lewis"
INDEX 00 02:48:00
FILE "21 - We Can Win.flac" WAVE
INDEX 01 00:00:00
TRACK 22 AUDIO
TITLE "Moles"
PERFORMER "Linda Lewis"
INDEX 00 02:46:55
FILE "22 - Moles.flac" WAVE
INDEX 01 00:00:00
TRACK 23 AUDIO
TITLE "Red Light Ladies (Demo)"
PERFORMER "Linda Lewis"
INDEX 00 01:33:72
FILE "23 - Red Light Ladies (Demo).flac" WAVE
INDEX 01 00:00:00
Приватный:
Нет (DHT включён)
Размер:
415.34 Мб (435,512,299 байт) » файлов: 30
Участники:
0 раздают, 0 качают (0 участников всего)
Внешние участники:
1 раздают, 0 качают (1 участников всего) [ Обновить ]
Есть вопросы - пишите личное сообщение пользователю M0p94ok.
05:24
116
Нет комментариев. Ваш будет первым!