Поиск

(Soul, R&B) [CD] Linda Lewis - Not A Little Girl Anymore (1975) - 2011, FLAC (tracks+.cue), lossless

(Soul, R&B) [CD] Linda Lewis - Not A Little Girl Anymore (1975) - 2011, FLAC (tracks+.cue), lossless
Треклист:
Linda Lewis - Not A Little Girl Anymore (1975) Жанр: Soul, R&B
Носитель: CD
Год издания: 2011
Издатель (лейбл): BBR Records
Номер по каталогу: CDBBR 0028
Аудиокодек: FLAC (*.flac)
Тип рипа: tracks+.cue
Битрейт аудио: lossless
Продолжительность: 65:35
Источник (релизер): What.cd (supersounder)
Наличие сканов в содержимом раздачи: да
Треклист:
01. Remember The Days Of The Old School Yard (3:13)
02. It's In His Kiss (3:21)
03. This Time I'll Be Sweeter (3:54)
04. Rock & Roller Coaster (3:18)
05. Not A Little Girl Anymore (4:16)
06. Love Where You Are Now (3:26)
07. My Grandaddy Could Reggae (3:20)
08. I Do My Best To Impress (3:34)
09. May You Never (4:03)
10. Love Love Love (3:42)
11. Walk About (3:49)
~ Bonus Tracks ~
12. The Seaside Song (2:20)
13. Cordon Blues (3:48)
14. So Many Mysteries To Find (4:16)
15. Baby I'm Yours (3:35)
16. All Comes Back To Love (3:41)
17. The Other Side (4:03)
18. Winter Wonderland (3:56)
 
 
Лог создания рипа
Exact Audio Copy V1.0 beta 1 from 15. November 2010
EAC extraction logfile from 13. March 2011, 20:55
Linda Lewis / Not A Little Girl Anymore
Used drive : PHILIPS DVDR1628P1 Adapter: 4 ID: 0
Read mode : Secure
Utilize accurate stream : Yes
Defeat audio cache : Yes
Make use of C2 pointers : No
Read offset correction : 618
Overread into Lead-In and Lead-Out : No
Fill up missing offset samples with silence : Yes
Delete leading and trailing silent blocks : No
Null samples used in CRC calculations : Yes
Used interface : Native Win32 interface for Win NT & 2000
Gap handling : Appended to previous track
Used output format : User Defined Encoder
Selected bitrate : 256 kBit/s
Quality : High
Add ID3 tag : No
Command line compressor : C:\Program Files\FLAC\flac.exe
Additional command line options : -8 -V -T "ARTIST=%a" -T "TITLE=%t" -T "ALBUM=%g" -T "DATE=%y" -T "TRACKNUMBER=%n" -T "TOTALTRACKS=%x" -T "GENRE=%m" -T "ALBUMARTIST=%v" -T "ALBUM ARTIST=%v" -T "COMMENT=EAC Secure Mode, Test & Copy, AccurateRip, FLAC -8" %s
TOC of the extracted CD
Track | Start | Length | Start sector | End sector
---------------------------------------------------------
1 | 0:00.00 | 3:13.19 | 0 | 14493
2 | 3:13.19 | 3:20.64 | 14494 | 29557
3 | 6:34.08 | 3:53.48 | 29558 | 47080
4 | 10:27.56 | 3:17.58 | 47081 | 61913
5 | 13:45.39 | 4:15.42 | 61914 | 81080
6 | 18:01.06 | 3:25.50 | 81081 | 96505
7 | 21:26.56 | 3:20.07 | 96506 | 111512
8 | 24:46.63 | 3:33.40 | 111513 | 127527
9 | 28:20.28 | 4:02.58 | 127528 | 145735
10 | 32:23.11 | 3:42.37 | 145736 | 162422
11 | 36:05.48 | 3:49.22 | 162423 | 179619
12 | 39:54.70 | 2:19.45 | 179620 | 190089
13 | 42:14.40 | 3:48.08 | 190090 | 207197
14 | 46:02.48 | 4:15.71 | 207198 | 226393
15 | 50:18.44 | 3:35.07 | 226394 | 242525
16 | 53:53.51 | 3:41.30 | 242526 | 259130
17 | 57:35.06 | 4:03.31 | 259131 | 277386
18 | 61:38.37 | 3:56.11 | 277387 | 295097
Track 1
Filename C:\addis gugsa killed my hdd\01 - Remember The Days Of The Old School Yard.wav
Pre-gap length 0:00:02.00
Peak level 100.0 %
Extraction speed 1.1 X
Track quality 99.9 %
Test CRC D55B5A29
Copy CRC D55B5A29
Track not present in AccurateRip database
Copy OK
Track 2
Filename C:\addis gugsa killed my hdd\02 - It's In His Kiss.wav
Pre-gap length 0:00:01.00
Peak level 100.0 %
Extraction speed 1.4 X
Track quality 100.0 %
Test CRC 6896E0E2
Copy CRC 6896E0E2
Track not present in AccurateRip database
Copy OK
Track 3
Filename C:\addis gugsa killed my hdd\03 - This Time I'll Be Sweeter.wav
Pre-gap length 0:00:01.00
Peak level 100.0 %
Extraction speed 1.5 X
Track quality 100.0 %
Test CRC 4E3F7FAA
Copy CRC 4E3F7FAA
Track not present in AccurateRip database
Copy OK
Track 4
Filename C:\addis gugsa killed my hdd\04 - Rock & Roller Coaster.wav
Pre-gap length 0:00:01.00
Peak level 100.0 %
Extraction speed 1.6 X
Track quality 100.0 %
Test CRC 0188E98F
Copy CRC 0188E98F
Track not present in AccurateRip database
Copy OK
Track 5
Filename C:\addis gugsa killed my hdd\05 - Not A Little Girl Anymore.wav
Pre-gap length 0:00:01.00
Peak level 100.0 %
Extraction speed 1.8 X
Track quality 100.0 %
Test CRC BAB76553
Copy CRC BAB76553
Track not present in AccurateRip database
Copy OK
Track 6
Filename C:\addis gugsa killed my hdd\06 - Love Where You Are Now.wav
Pre-gap length 0:00:01.00
Peak level 100.0 %
Extraction speed 1.8 X
Track quality 100.0 %
Test CRC 157BE826
Copy CRC 157BE826
Track not present in AccurateRip database
Copy OK
Track 7
Filename C:\addis gugsa killed my hdd\07 - My Grandaddy Could Reggae.wav
Pre-gap length 0:00:01.00
Peak level 100.0 %
Extraction speed 1.9 X
Track quality 100.0 %
Test CRC 05A3E218
Copy CRC 05A3E218
Track not present in AccurateRip database
Copy OK
Track 8
Filename C:\addis gugsa killed my hdd\08 - I Do My Best To Impress.wav
Pre-gap length 0:00:01.00
Peak level 100.0 %
Extraction speed 1.7 X
Track quality 99.9 %
Test CRC 4010F6BD
Copy CRC 4010F6BD
Track not present in AccurateRip database
Copy OK
Track 9
Filename C:\addis gugsa killed my hdd\09 - May You Never.wav
Pre-gap length 0:00:01.00
Peak level 100.0 %
Extraction speed 2.1 X
Track quality 100.0 %
Test CRC 88C42570
Copy CRC 88C42570
Track not present in AccurateRip database
Copy OK
Track 10
Filename C:\addis gugsa killed my hdd\10 - Love Love Love.wav
Pre-gap length 0:00:01.00
Peak level 100.0 %
Extraction speed 1.9 X
Track quality 99.9 %
Test CRC FCEBC28B
Copy CRC FCEBC28B
Track not present in AccurateRip database
Copy OK
Track 11
Filename C:\addis gugsa killed my hdd\11 - Walk About.wav
Pre-gap length 0:00:02.00
Peak level 100.0 %
Extraction speed 2.3 X
Track quality 100.0 %
Test CRC 05887152
Copy CRC 05887152
Track not present in AccurateRip database
Copy OK
Track 12
Filename C:\addis gugsa killed my hdd\12 - The Seaside Song.wav
Pre-gap length 0:00:01.00
Peak level 100.0 %
Extraction speed 2.2 X
Track quality 100.0 %
Test CRC DF230705
Copy CRC DF230705
Track not present in AccurateRip database
Copy OK
Track 13
Filename C:\addis gugsa killed my hdd\13 - Cordon Blues.wav
Pre-gap length 0:00:01.00
Peak level 100.0 %
Extraction speed 2.1 X
Track quality 99.9 %
Test CRC BD86B8D0
Copy CRC BD86B8D0
Track not present in AccurateRip database
Copy OK
Track 14
Filename C:\addis gugsa killed my hdd\14 - So Many Mysteries To Find.wav
Pre-gap length 0:00:01.00
Peak level 100.0 %
Extraction speed 2.5 X
Track quality 100.0 %
Test CRC 3B187EF9
Copy CRC 3B187EF9
Track not present in AccurateRip database
Copy OK
Track 15
Filename C:\addis gugsa killed my hdd\15 - Baby I'm Yours.wav
Pre-gap length 0:00:01.00
Peak level 100.0 %
Extraction speed 2.5 X
Track quality 100.0 %
Test CRC 17E17855
Copy CRC 17E17855
Track not present in AccurateRip database
Copy OK
Track 16
Filename C:\addis gugsa killed my hdd\16 - All Comes Back To Love.wav
Pre-gap length 0:00:01.00
Peak level 100.0 %
Extraction speed 2.6 X
Track quality 100.0 %
Test CRC 6B50F894
Copy CRC 6B50F894
Track not present in AccurateRip database
Copy OK
Track 17
Filename C:\addis gugsa killed my hdd\17 - The Other Side.wav
Pre-gap length 0:00:01.00
Peak level 100.0 %
Extraction speed 2.4 X
Track quality 99.9 %
Test CRC 2215816C
Copy CRC 2215816C
Track not present in AccurateRip database
Copy OK
Track 18
Filename C:\addis gugsa killed my hdd\18 - Winter Wonderland.wav
Pre-gap length 0:00:01.00
Peak level 100.0 %
Extraction speed 2.4 X
Track quality 99.9 %
Test CRC 4E068B15
Copy CRC 4E068B15
Track not present in AccurateRip database
Copy OK
None of the tracks are present in the AccurateRip database
No errors occurred
End of status report
==== Log checksum 680D7FCF04B4964A20C9325909EC2FE4DC560ECA7F2350C9F34391548974A4BC ====
 
Содержание индексной карты (.CUE)
REM GENRE Soul
REM DATE 1975
REM DISCID 0D0F5E12
REM COMMENT "ExactAudioCopy v1.0b1"
PERFORMER "Linda Lewis"
TITLE "Not A Little Girl Anymore"
FILE "01 - Remember The Days Of The Old School Yard.wav" WAVE
TRACK 01 AUDIO
TITLE "Remember The Days Of The Old School Yard"
PERFORMER "Linda Lewis"
FLAGS DCP
INDEX 01 00:00:00
TRACK 02 AUDIO
TITLE "It's In His Kiss"
PERFORMER "Linda Lewis"
FLAGS DCP
INDEX 00 03:12:19
FILE "02 - It's In His Kiss.wav" WAVE
INDEX 01 00:00:00
TRACK 03 AUDIO
TITLE "This Time I'll Be Sweeter"
PERFORMER "Linda Lewis"
FLAGS DCP
INDEX 00 03:19:64
FILE "03 - This Time I'll Be Sweeter.wav" WAVE
INDEX 01 00:00:00
TRACK 04 AUDIO
TITLE "Rock & Roller Coaster"
PERFORMER "Linda Lewis"
FLAGS DCP
INDEX 00 03:52:48
FILE "04 - Rock & Roller Coaster.wav" WAVE
INDEX 01 00:00:00
TRACK 05 AUDIO
TITLE "Not A Little Girl Anymore"
PERFORMER "Linda Lewis"
FLAGS DCP
INDEX 00 03:16:58
FILE "05 - Not A Little Girl Anymore.wav" WAVE
INDEX 01 00:00:00
TRACK 06 AUDIO
TITLE "Love Where You Are Now"
PERFORMER "Linda Lewis"
FLAGS DCP
INDEX 00 04:14:42
FILE "06 - Love Where You Are Now.wav" WAVE
INDEX 01 00:00:00
TRACK 07 AUDIO
TITLE "My Grandaddy Could Reggae"
PERFORMER "Linda Lewis"
FLAGS DCP
INDEX 00 03:24:50
FILE "07 - My Grandaddy Could Reggae.wav" WAVE
INDEX 01 00:00:00
TRACK 08 AUDIO
TITLE "I Do My Best To Impress"
PERFORMER "Linda Lewis"
FLAGS DCP
INDEX 00 03:19:07
FILE "08 - I Do My Best To Impress.wav" WAVE
INDEX 01 00:00:00
TRACK 09 AUDIO
TITLE "May You Never"
PERFORMER "Linda Lewis"
FLAGS DCP
INDEX 00 03:32:40
FILE "09 - May You Never.wav" WAVE
INDEX 01 00:00:00
TRACK 10 AUDIO
TITLE "Love Love Love"
PERFORMER "Linda Lewis"
FLAGS DCP
INDEX 00 04:01:58
FILE "10 - Love Love Love.wav" WAVE
INDEX 01 00:00:00
TRACK 11 AUDIO
TITLE " Walk About"
PERFORMER "Linda Lewis"
FLAGS DCP
INDEX 00 03:40:37
FILE "11 - Walk About.wav" WAVE
INDEX 01 00:00:00
TRACK 12 AUDIO
TITLE " The Seaside Song"
PERFORMER "Linda Lewis"
FLAGS DCP
INDEX 00 03:48:22
FILE "12 - The Seaside Song.wav" WAVE
INDEX 01 00:00:00
TRACK 13 AUDIO
TITLE " Cordon Blues"
PERFORMER "Linda Lewis"
FLAGS DCP
INDEX 00 02:18:45
FILE "13 - Cordon Blues.wav" WAVE
INDEX 01 00:00:00
TRACK 14 AUDIO
TITLE " So Many Mysteries To Find"
PERFORMER "Linda Lewis"
FLAGS DCP
INDEX 00 03:47:08
FILE "14 - So Many Mysteries To Find.wav" WAVE
INDEX 01 00:00:00
TRACK 15 AUDIO
TITLE " Baby I'm Yours"
PERFORMER "Linda Lewis"
FLAGS DCP
INDEX 00 04:14:71
FILE "15 - Baby I'm Yours.wav" WAVE
INDEX 01 00:00:00
TRACK 16 AUDIO
TITLE " All Comes Back To Love"
PERFORMER "Linda Lewis"
FLAGS DCP
INDEX 00 03:34:07
FILE "16 - All Comes Back To Love.wav" WAVE
INDEX 01 00:00:00
TRACK 17 AUDIO
TITLE " The Other Side"
PERFORMER "Linda Lewis"
FLAGS DCP
INDEX 00 03:40:30
FILE "17 - The Other Side.wav" WAVE
INDEX 01 00:00:00
TRACK 18 AUDIO
TITLE " Winter Wonderland"
PERFORMER "Linda Lewis"
FLAGS DCP
INDEX 00 04:02:31
FILE "18 - Winter Wonderland.wav" WAVE
INDEX 01 00:00:00
Приватный:
Нет (DHT включён)
Размер:
437.09 Мб (458,317,225 байт) » файлов: 32
Участники:
0 раздают, 0 качают (0 участников всего)
Внешние участники:
3 раздают, 1 качают (4 участников всего) [ Обновить ]
No seeders - write personal message to user M0p94ok. Нет сидеров - пишите личное сообщение пользователю M0p94ok.
05:23
51
Нет комментариев. Ваш будет первым!