Поиск

(Soul, R&B) [CD] Linda Lewis - ‘Say No More...’ (1971) - 2012, FLAC (tracks+.cue), lossless

(Soul, R&B) [CD] Linda Lewis - ‘Say No More...’ (1971) - 2012, FLAC (tracks+.cue), lossless
Треклист:
Linda Lewis - ‘Say No More...’ (1971) Жанр: Soul, R&B
Носитель: CD
Год издания: 2012
Издатель (лейбл): BBR Records
Номер по каталогу: CDBBR 0104
Аудиокодек: FLAC (*.flac)
Тип рипа: tracks+.cue
Битрейт аудио: lossless
Продолжительность: 34:48
Rip by JET 1
Наличие сканов в содержимом раздачи: да
Треклист:
01. For Mama (0:46)
02. Come Along People (3:06)
03. The Same Song (3:52)
04. Hampstead Way (3:43)
05. Peter's Garden (2:50)
06. We Can Win (2:50)
07. Funky Kitchen (1:03)
08. Follow The Piper (2:39)
09. Donkey's Years (2:51)
10. I Dunno (3:31)
11. Magic In The Music (2:46)
12. Hymn (4:52)
 
 
Лог создания рипа
Exact Audio Copy V1.0 beta 3 from 29. August 2011
EAC extraction logfile from 7. January 2015, 11:43
Linda Lewis / Say No More…
Used drive : ATAPI DVD A DH16A6L-C Adapter: 2 ID: 0
Read mode : Secure
Utilize accurate stream : Yes
Defeat audio cache : Yes
Make use of C2 pointers : No
Read offset correction : 6
Overread into Lead-In and Lead-Out : No
Fill up missing offset samples with silence : Yes
Delete leading and trailing silent blocks : No
Null samples used in CRC calculations : Yes
Used interface : Native Win32 interface for Win NT & 2000
Gap handling : Appended to previous track
Used output format : User Defined Encoder
Selected bitrate : 1024 kBit/s
Quality : High
Add ID3 tag : No
Command line compressor : C:\Program Files\FLAC\flac.exe
Additional command line options : -8 -V -T "ARTIST=%artist%" -T "TITLE=%title%" -T "ALBUM=%albumtitle%" -T "DATE=%year%" -T "TRACKNUMBER=%tracknr%" -T "GENRE=%genre%" -T "PERFORMER=%albuminterpret%" -T "COMPOSER=%composer%" %haslyrics%--tag-from-file=LYRICS="%lyricsfile%"%haslyrics% -T "ALBUMARTIST=%albumartist%" -T "DISCNUMBER=%cdnumber%" -T "TOTALDISCS=%totalcds%" -T "TOTALTRACKS=%numtracks%" -T "COMMENT=%comment%" %source% -o %dest%
TOC of the extracted CD
Track | Start | Length | Start sector | End sector
---------------------------------------------------------
1 | 0:00.00 | 0:45.39 | 0 | 3413
2 | 0:45.39 | 3:06.19 | 3414 | 17382
3 | 3:51.58 | 3:51.59 | 17383 | 34766
4 | 7:43.42 | 3:42.53 | 34767 | 51469
5 | 11:26.20 | 2:50.22 | 51470 | 64241
6 | 14:16.42 | 2:49.63 | 64242 | 76979
7 | 17:06.30 | 1:03.11 | 76980 | 81715
8 | 18:09.41 | 2:38.68 | 81716 | 93633
9 | 20:48.34 | 2:50.46 | 93634 | 106429
10 | 23:39.05 | 3:31.22 | 106430 | 122276
11 | 27:10.27 | 2:46.28 | 122277 | 134754
12 | 29:56.55 | 4:51.50 | 134755 | 156629
Track 1
Filename F:\0\!!!!!POST!!!!\Linda Lewis ‎- 'Say No More...' (1971) [2012 BBR]\01 - For Mama.wav
Pre-gap length 0:00:02.00
Peak level 88.7 %
Extraction speed 2.0 X
Track quality 100.0 %
Test CRC 6EB51FE9
Copy CRC 6EB51FE9
Accurately ripped (confidence 1) [5AC816BF] (AR v2)
Copy OK
Track 2
Filename F:\0\!!!!!POST!!!!\Linda Lewis ‎- 'Say No More...' (1971) [2012 BBR]\02 - Come Along People.wav
Peak level 99.7 %
Extraction speed 2.6 X
Track quality 99.9 %
Test CRC 039322BC
Copy CRC 039322BC
Accurately ripped (confidence 1) [B3D87748] (AR v2)
Copy OK
Track 3
Filename F:\0\!!!!!POST!!!!\Linda Lewis ‎- 'Say No More...' (1971) [2012 BBR]\03 - The Same Song.wav
Pre-gap length 0:00:01.48
Peak level 94.4 %
Extraction speed 3.9 X
Track quality 100.0 %
Test CRC 31856BFC
Copy CRC 31856BFC
Accurately ripped (confidence 1) [A29F8627] (AR v2)
Copy OK
Track 4
Filename F:\0\!!!!!POST!!!!\Linda Lewis ‎- 'Say No More...' (1971) [2012 BBR]\04 - Hampstead Way.wav
Pre-gap length 0:00:02.39
Peak level 93.3 %
Extraction speed 4.1 X
Track quality 100.0 %
Test CRC FFA938DC
Copy CRC FFA938DC
Accurately ripped (confidence 1) [3FB41750] (AR v2)
Copy OK
Track 5
Filename F:\0\!!!!!POST!!!!\Linda Lewis ‎- 'Say No More...' (1971) [2012 BBR]\05 - Peter's Garden.wav
Pre-gap length 0:00:01.33
Peak level 94.4 %
Extraction speed 3.2 X
Track quality 99.9 %
Test CRC 464D5BD2
Copy CRC 464D5BD2
Accurately ripped (confidence 1) [6774C94E] (AR v2)
Copy OK
Track 6
Filename F:\0\!!!!!POST!!!!\Linda Lewis ‎- 'Say No More...' (1971) [2012 BBR]\06 - We Can Win.wav
Pre-gap length 0:00:01.72
Peak level 93.9 %
Extraction speed 4.4 X
Track quality 100.0 %
Test CRC D7892F1E
Copy CRC D7892F1E
Accurately ripped (confidence 1) [0210595F] (AR v2)
Copy OK
Track 7
Filename F:\0\!!!!!POST!!!!\Linda Lewis ‎- 'Say No More...' (1971) [2012 BBR]\07 - Funky Kitchen.wav
Pre-gap length 0:00:02.30
Peak level 83.1 %
Extraction speed 3.4 X
Track quality 100.0 %
Test CRC A2BEFE26
Copy CRC A2BEFE26
Accurately ripped (confidence 1) [92A4E897] (AR v2)
Copy OK
Track 8
Filename F:\0\!!!!!POST!!!!\Linda Lewis ‎- 'Say No More...' (1971) [2012 BBR]\08 - Follow The Piper.wav
Peak level 94.1 %
Extraction speed 4.6 X
Track quality 100.0 %
Test CRC C515F7E0
Copy CRC C515F7E0
Accurately ripped (confidence 1) [92035846] (AR v2)
Copy OK
Track 9
Filename F:\0\!!!!!POST!!!!\Linda Lewis ‎- 'Say No More...' (1971) [2012 BBR]\09 - Donkey's Years.wav
Pre-gap length 0:00:02.02
Peak level 78.5 %
Extraction speed 3.7 X
Track quality 99.9 %
Test CRC 5C0A40B3
Copy CRC 5C0A40B3
Accurately ripped (confidence 1) [5B859B71] (AR v2)
Copy OK
Track 10
Filename F:\0\!!!!!POST!!!!\Linda Lewis ‎- 'Say No More...' (1971) [2012 BBR]\10 - I Dunno.wav
Peak level 78.5 %
Extraction speed 5.1 X
Track quality 100.0 %
Test CRC 7ED89593
Copy CRC 7ED89593
Accurately ripped (confidence 1) [13DD7004] (AR v2)
Copy OK
Track 11
Filename F:\0\!!!!!POST!!!!\Linda Lewis ‎- 'Say No More...' (1971) [2012 BBR]\11 - Magic In The Music.wav
Pre-gap length 0:00:02.41
Peak level 94.0 %
Extraction speed 4.7 X
Track quality 100.0 %
Test CRC 19495896
Copy CRC 19495896
Accurately ripped (confidence 1) [9002D36D] (AR v2)
Copy OK
Track 12
Filename F:\0\!!!!!POST!!!!\Linda Lewis ‎- 'Say No More...' (1971) [2012 BBR]\12 - Hymn.wav
Peak level 99.7 %
Extraction speed 5.8 X
Track quality 100.0 %
Test CRC BE05FBC3
Copy CRC BE05FBC3
Accurately ripped (confidence 1) [143B770C] (AR v2)
Copy OK
All tracks accurately ripped
No errors occurred
End of status report
==== Log checksum 20A7198006D2FDE8673D21A3E12F1304E78278908B7052642D5511D5392C6407 ====
 
Содержание индексной карты (.CUE)
REM GENRE R&B
REM DATE 1971
REM DISCID 9A08280C
REM COMMENT "ExactAudioCopy v1.0b3"
PERFORMER "Linda Lewis"
TITLE "Say No More…"
FILE "01 - For Mama.wav" WAVE
TRACK 01 AUDIO
TITLE "For Mama"
PERFORMER "Linda Lewis"
INDEX 01 00:00:00
FILE "02 - Come Along People.wav" WAVE
TRACK 02 AUDIO
TITLE "Come Along People"
PERFORMER "Linda Lewis"
INDEX 01 00:00:00
TRACK 03 AUDIO
TITLE "The Same Song"
PERFORMER "Linda Lewis"
INDEX 00 03:04:46
FILE "03 - The Same Song.wav" WAVE
INDEX 01 00:00:00
TRACK 04 AUDIO
TITLE "Hampstead Way"
PERFORMER "Linda Lewis"
INDEX 00 03:49:20
FILE "04 - Hampstead Way.wav" WAVE
INDEX 01 00:00:00
TRACK 05 AUDIO
TITLE "Peter's Garden "
PERFORMER "Linda Lewis"
INDEX 00 03:41:20
FILE "05 - Peter's Garden.wav" WAVE
INDEX 01 00:00:00
TRACK 06 AUDIO
TITLE "We Can Win"
PERFORMER "Linda Lewis"
INDEX 00 02:48:25
FILE "06 - We Can Win.wav" WAVE
INDEX 01 00:00:00
TRACK 07 AUDIO
TITLE "Funky Kitchen"
PERFORMER "Linda Lewis"
INDEX 00 02:47:33
FILE "07 - Funky Kitchen.wav" WAVE
INDEX 01 00:00:00
FILE "08 - Follow The Piper.wav" WAVE
TRACK 08 AUDIO
TITLE "Follow The Piper "
PERFORMER "Linda Lewis"
INDEX 01 00:00:00
TRACK 09 AUDIO
TITLE "Donkey's Years "
PERFORMER "Linda Lewis"
INDEX 00 02:36:66
FILE "09 - Donkey's Years.wav" WAVE
INDEX 01 00:00:00
FILE "10 - I Dunno.wav" WAVE
TRACK 10 AUDIO
TITLE "I Dunno"
PERFORMER "Linda Lewis"
INDEX 01 00:00:00
TRACK 11 AUDIO
TITLE "Magic In The Music"
PERFORMER "Linda Lewis"
INDEX 00 03:28:56
FILE "11 - Magic In The Music.wav" WAVE
INDEX 01 00:00:00
FILE "12 - Hymn.wav" WAVE
TRACK 12 AUDIO
TITLE "Hymn "
PERFORMER "Linda Lewis"
INDEX 01 00:00:00
Приватный:
Нет (DHT включён)
Размер:
371.64 Мб (389,696,876 байт) » файлов: 28
Участники:
0 раздают, 0 качают (0 участников всего)
Внешние участники:
3 раздают, 1 качают (4 участников всего) [ Обновить ]
Есть вопросы - пишите личное сообщение пользователю M0p94ok.
05:22
123
Нет комментариев. Ваш будет первым!