Поиск

(New Orleans R&B / Northern Soul) [CD] Barbara Lynn - Here Is Barbara Lynn (1968) - 2009, FLAC (image+.cue), lossless

(New Orleans R&B / Northern Soul) [CD] Barbara Lynn - Here Is Barbara Lynn (1968) - 2009, FLAC (image+.cue), lossless
Треклист:
Barbara Lynn / Here Is Barbara Lynn (1968)
Жанр: New Orleans R&B / Northern Soul
Носитель: CD
Страна-производитель диска (релиза): USA
Год издания: 2009
Издатель (лейбл): WATER
Номер по каталогу: 239
Страна исполнителя (группы): USA
Аудиокодек: FLAC (*.flac)
Тип рипа: image+.cue
Битрейт аудио: lossless
Продолжительность: 30:19
Источник (релизер): Од'Родр Рип
Наличие сканов в содержимом раздачи: да
Треклист:
01. You'll Lose A Good Thing 03:05
02. Take Your Love And Run 02:56
03. Maybe We Can Slip Away 02:16
04. Sure Is Worth It 02:11
05. Only You Know How To Love Me 02:15
06. I'll Suffer 03:06
07. You're Losing Me 02:20
08. Sufferin' City 02:31
09. Multiplying Pain 02:42
10. Why Can't You Love Me 02:33
11. Mix It Up Baby 01:59
12. This Is The Thanks I Get 02:24
 
Лог создания рипа
Exact Audio Copy V1.0 beta 3 from 29. August 2011
Отчёт EAC об извлечении, выполненном 14. апреля 2015, 15:58
Barbara Lynn / Here Is Barbara Lynn
Дисковод: Optiarc DVD RW AD-7203S Adapter: 0 ID: 0
Режим чтения : Достоверность
Использование точного потока : Да
Отключение кэша аудио : Да
Использование указателей C2 : Нет
Коррекция смещения при чтении : 48
Способность читать области Lead-in и Lead-out : Нет
Заполнение пропущенных сэмплов тишиной : Да
Удаление блоков с тишиной в начале и конце : Нет
При вычислениях CRC использовались нулевые сэмплы : Да
Интерфейс : Встроенный Win32-интерфейс для Win NT/2000
Выходной формат : Пользовательский кодировщик
Выбранный битрейт : 128 kBit/s
Качество : Высокий
Добавление ID3-тега : Нет
Утилита сжатия : C:\Program Files\Exact Audio Copy\Flac\flac.exe
Дополнительные параметры : -V -8 -T "Date=%year%" -T "Genre=%genre%" %source%
TOC извлечённого CD
Трек | Старт | Длительность | Начальный сектор | Конечный сектор
---------------------------------------------------------------------
1 | 0:00.00 | 3:04.38 | 0 | 13837
2 | 3:04.38 | 2:55.47 | 13838 | 27009
3 | 6:00.10 | 2:15.69 | 27010 | 37203
4 | 8:16.04 | 2:11.33 | 37204 | 47061
5 | 10:27.37 | 2:15.29 | 47062 | 57215
6 | 12:42.66 | 3:05.49 | 57216 | 71139
7 | 15:48.40 | 2:20.10 | 71140 | 81649
8 | 18:08.50 | 2:31.25 | 81650 | 92999
9 | 20:40.00 | 2:42.32 | 93000 | 105181
10 | 23:22.32 | 2:33.26 | 105182 | 116682
11 | 25:55.58 | 1:59.10 | 116683 | 125617
12 | 27:54.68 | 2:24.14 | 125618 | 136431
Характеристики диапазона извлечения и сообщения об ошибках
Выбранный диапазон
Имя файла F:\EAC\1968-Barbara Lynn - Here Is Barbara Lynn\1968-Barbara Lynn - Here Is Barbara Lynn\Barbara Lynn - Here Is Barbara Lynn.wav
Пиковый уровень 97.7 %
Скорость извлечения 3.0 X
Качество диапазона 99.9 %
CRC теста A337C164
CRC копии A337C164
Копирование... OK
Ошибок не произошло
AccurateRip: сводка
Трек 1 : извлечено точно (доверие 3) [FC796BB3] (AR v2)
Трек 2 : извлечено точно (доверие 3) [9F2AF585] (AR v2)
Трек 3 : извлечено точно (доверие 3) [F4FE1569] (AR v2)
Трек 4 : извлечено точно (доверие 3) [0B2099F7] (AR v2)
Трек 5 : извлечено точно (доверие 3) [0446AA9F] (AR v2)
Трек 6 : извлечено точно (доверие 3) [082DEAF0] (AR v2)
Трек 7 : извлечено точно (доверие 3) [2D560921] (AR v2)
Трек 8 : извлечено точно (доверие 3) [903C2025] (AR v2)
Трек 9 : извлечено точно (доверие 3) [04F65014] (AR v2)
Трек 10 : извлечено точно (доверие 3) [FC54E5F7] (AR v2)
Трек 11 : извлечено точно (доверие 4) [C539E46E] (AR v2)
Трек 12 : извлечено точно (доверие 3) [85E9A9C0] (AR v2)
Все треки извлечены точно
Конец отчёта
==== Контрольная сумма отчёта ACC5FEFB7CCC35FD3CF427FB1F55A1F478809F1466281B019FD18738B9C681FB ====
 
Содержание индексной карты (.CUE)
REM DISCID A3071B0C
REM COMMENT "ExactAudioCopy v1.0b3"
PERFORMER "Barbara Lynn"
TITLE "Here Is Barbara Lynn"
FILE "Barbara Lynn - Here Is Barbara Lynn.flac" WAVE
TRACK 01 AUDIO
TITLE "You'll Lose A Good Thing"
PERFORMER " "
INDEX 01 00:00:00
TRACK 02 AUDIO
TITLE "Take Your Love And Run"
PERFORMER " "
INDEX 00 03:02:51
INDEX 01 03:04:38
TRACK 03 AUDIO
TITLE "Maybe We Can Slip Away"
PERFORMER " "
INDEX 00 05:58:06
INDEX 01 06:00:10
TRACK 04 AUDIO
TITLE "Sure Is Worth It"
PERFORMER " "
INDEX 00 08:13:68
INDEX 01 08:16:04
TRACK 05 AUDIO
TITLE "Only You Know How To Love Me"
PERFORMER " "
INDEX 00 10:25:20
INDEX 01 10:27:37
TRACK 06 AUDIO
TITLE "I'll Suffer"
PERFORMER " "
INDEX 00 12:37:43
INDEX 01 12:42:66
TRACK 07 AUDIO
TITLE "You're Losing Me"
PERFORMER " "
INDEX 00 15:45:44
INDEX 01 15:48:40
TRACK 08 AUDIO
TITLE "Sufferin' City"
PERFORMER " "
INDEX 00 18:06:11
INDEX 01 18:08:50
TRACK 09 AUDIO
TITLE "Multiplying Pain"
PERFORMER " "
INDEX 00 20:37:57
INDEX 01 20:40:00
TRACK 10 AUDIO
TITLE "Why Can't You Love Me"
PERFORMER " "
INDEX 00 23:20:32
INDEX 01 23:22:32
TRACK 11 AUDIO
TITLE "Mix It Up Baby"
PERFORMER " "
INDEX 00 25:53:47
INDEX 01 25:55:58
TRACK 12 AUDIO
TITLE "This Is The Thanks I Get"
PERFORMER " "
INDEX 00 27:52:32
INDEX 01 27:54:68
Приватный:
Нет (DHT включён)
Размер:
195.80 Мб (205,316,163 байт) » файлов: 10
Участники:
0 раздают, 0 качают (0 участников всего)
Внешние участники:
3 раздают, 1 качают (4 участников всего) [ Обновить ]
Есть вопросы - пишите личное сообщение пользователю M0p94ok.
05:22
76
Нет комментариев. Ваш будет первым!