Поиск

(Soul, R&B) [CD] Keisa Brown - Keisa - 1988, FLAC (tracks+.cue), lossless

(Soul, R&B) [CD] Keisa Brown - Keisa - 1988, FLAC (tracks+.cue), lossless
Треклист:
Keisa Brown - Keisa Жанр: Soul, R&B
Носитель: CD
Год издания: 1988
Издатель (лейбл): Timeless Records
Номер по каталогу: TLCD 9.00673 O
Аудиокодек: FLAC (*.flac)
Тип рипа: tracks+.cue
Битрейт аудио: lossless
Продолжительность: 34:24
Rip by JET 1
Наличие сканов в содержимом раздачи: да
Треклист:
01. Full Time Love (4:04)
02. Is It Love Or Is It Memorex? (4:48)
03. My Side Of Town (3:58)
04. Tailor Made (4:17)
05. Let's Take The Long Way Home (4:18)
06. Walking Or Crawling (4:32)
07. Some Bridges Need Burning (5:00)
08. Never (3:28)
 
 
Лог создания рипа
Exact Audio Copy V1.0 beta 3 from 29. August 2011
EAC extraction logfile from 13. January 2015, 17:06
Keisa Brown / Keisa
Used drive : ATAPI DVD A DH16A6L-C Adapter: 2 ID: 0
Read mode : Secure
Utilize accurate stream : Yes
Defeat audio cache : Yes
Make use of C2 pointers : No
Read offset correction : 6
Overread into Lead-In and Lead-Out : No
Fill up missing offset samples with silence : Yes
Delete leading and trailing silent blocks : No
Null samples used in CRC calculations : Yes
Used interface : Native Win32 interface for Win NT & 2000
Gap handling : Appended to previous track
Used output format : User Defined Encoder
Selected bitrate : 1024 kBit/s
Quality : High
Add ID3 tag : No
Command line compressor : C:\Program Files\FLAC\flac.exe
Additional command line options : -8 -V -T "ARTIST=%artist%" -T "TITLE=%title%" -T "ALBUM=%albumtitle%" -T "DATE=%year%" -T "TRACKNUMBER=%tracknr%" -T "GENRE=%genre%" -T "PERFORMER=%albuminterpret%" -T "COMPOSER=%composer%" %haslyrics%--tag-from-file=LYRICS="%lyricsfile%"%haslyrics% -T "ALBUMARTIST=%albumartist%" -T "DISCNUMBER=%cdnumber%" -T "TOTALDISCS=%totalcds%" -T "TOTALTRACKS=%numtracks%" -T "COMMENT=%comment%" %source% -o %dest%
TOC of the extracted CD
Track | Start | Length | Start sector | End sector
---------------------------------------------------------
1 | 0:00.00 | 4:03.50 | 0 | 18274
2 | 4:03.50 | 4:48.00 | 18275 | 39874
3 | 8:51.50 | 3:58.37 | 39875 | 57761
4 | 12:50.12 | 4:16.50 | 57762 | 77011
5 | 17:06.62 | 4:18.00 | 77012 | 96361
6 | 21:24.62 | 4:31.38 | 96362 | 116724
7 | 25:56.25 | 4:59.50 | 116725 | 139199
8 | 30:56.00 | 3:28.00 | 139200 | 154799
Track 1
Filename F:\0\!!!!!POST!!!!\Keisa Brown - Keisa (1988)\01 - Full Time Love.wav
Pre-gap length 0:00:02.00
Peak level 94.4 %
Extraction speed 2.8 X
Track quality 99.9 %
Test CRC F1091041
Copy CRC F1091041
Track not present in AccurateRip database
Copy OK
Track 2
Filename F:\0\!!!!!POST!!!!\Keisa Brown - Keisa (1988)\02 - Is It Love Or Is It Memorex.wav
Pre-gap length 0:00:02.50
Peak level 89.1 %
Extraction speed 2.4 X
Track quality 99.8 %
Test CRC D35800AB
Copy CRC D35800AB
Track not present in AccurateRip database
Copy OK
Track 3
Filename F:\0\!!!!!POST!!!!\Keisa Brown - Keisa (1988)\03 - My Side Of Town.wav
Pre-gap length 0:00:03.25
Peak level 78.4 %
Extraction speed 4.2 X
Track quality 100.0 %
Test CRC BD95D4A2
Copy CRC BD95D4A2
Track not present in AccurateRip database
Copy OK
Track 4
Filename F:\0\!!!!!POST!!!!\Keisa Brown - Keisa (1988)\04 - Tailor Made.wav
Pre-gap length 0:00:03.12
Peak level 77.3 %
Extraction speed 3.8 X
Track quality 99.9 %
Test CRC 9BF9F9AB
Copy CRC 9BF9F9AB
Track not present in AccurateRip database
Copy OK
Track 5
Filename F:\0\!!!!!POST!!!!\Keisa Brown - Keisa (1988)\05 - Let's Take The Long Way Home.wav
Pre-gap length 0:00:01.62
Peak level 96.3 %
Extraction speed 4.0 X
Track quality 99.9 %
Test CRC AFE95265
Copy CRC AFE95265
Track not present in AccurateRip database
Copy OK
Track 6
Filename F:\0\!!!!!POST!!!!\Keisa Brown - Keisa (1988)\06 - Walking Or Crawling.wav
Pre-gap length 0:00:05.62
Peak level 87.3 %
Extraction speed 5.2 X
Track quality 100.0 %
Test CRC 0E31197F
Copy CRC 0E31197F
Track not present in AccurateRip database
Copy OK
Track 7
Filename F:\0\!!!!!POST!!!!\Keisa Brown - Keisa (1988)\07 - Walking Or Crawling.wav
Pre-gap length 0:00:03.25
Peak level 92.4 %
Extraction speed 4.6 X
Track quality 99.9 %
Test CRC 95549588
Copy CRC 95549588
Track not present in AccurateRip database
Copy OK
Track 8
Filename F:\0\!!!!!POST!!!!\Keisa Brown - Keisa (1988)\08 - Never.wav
Pre-gap length 0:00:06.00
Peak level 82.8 %
Extraction speed 4.4 X
Track quality 99.9 %
Test CRC 6FB773EC
Copy CRC 6FB773EC
Track not present in AccurateRip database
Copy OK
None of the tracks are present in the AccurateRip database
No errors occurred
End of status report
==== Log checksum 8B49AE971626656ED8B6BC8010DD50F2D14F77FA2EA5D62B943A377CFA3B5A94 ====
 
Содержание индексной карты (.CUE)
REM GENRE Soul
REM DATE 1988
REM DISCID 6D081008
REM COMMENT "ExactAudioCopy v1.0b3"
PERFORMER "Keisa Brown"
TITLE "Keisa"
FILE "01 - Full Time Love.wav" WAVE
TRACK 01 AUDIO
TITLE "Full Time Love"
PERFORMER "Keisa Brown"
INDEX 01 00:00:00
TRACK 02 AUDIO
TITLE "Is It Love Or Is It Memorex?"
PERFORMER "Keisa Brown"
INDEX 00 04:01:00
FILE "02 - Is It Love Or Is It Memorex.wav" WAVE
INDEX 01 00:00:00
TRACK 03 AUDIO
TITLE "My Side Of Town"
PERFORMER "Keisa Brown"
INDEX 00 04:44:50
FILE "03 - My Side Of Town.wav" WAVE
INDEX 01 00:00:00
TRACK 04 AUDIO
TITLE "Tailor Made"
PERFORMER "Keisa Brown"
INDEX 00 03:55:25
FILE "04 - Tailor Made.wav" WAVE
INDEX 01 00:00:00
TRACK 05 AUDIO
TITLE "Let's Take The Long Way Home"
PERFORMER "Keisa Brown"
INDEX 00 04:14:63
FILE "05 - Let's Take The Long Way Home.wav" WAVE
INDEX 01 00:00:00
TRACK 06 AUDIO
TITLE "Walking Or Crawling"
PERFORMER "Keisa Brown"
INDEX 00 04:12:13
FILE "06 - Walking Or Crawling.wav" WAVE
INDEX 01 00:00:00
TRACK 07 AUDIO
TITLE "Some Bridges Need Burning"
PERFORMER "Keisa Brown"
INDEX 00 04:28:13
FILE "07 - Some Bridges Need Burning.wav" WAVE
INDEX 01 00:00:00
TRACK 08 AUDIO
TITLE "Never"
PERFORMER "Keisa Brown"
INDEX 00 04:53:50
FILE "08 - Never.wav" WAVE
INDEX 01 00:00:00
Приватный:
Нет (DHT включён)
Размер:
247.39 Мб (259,404,792 байт) » файлов: 17
Участники:
0 раздают, 0 качают (0 участников всего)
Внешние участники:
2 раздают, 1 качают (3 участников всего) [ Обновить ]
Есть вопросы - пишите личное сообщение пользователю M0p94ok.
05:21
72
Нет комментариев. Ваш будет первым!