Поиск

(Soul, R&B) [CD] Patti Austin - Intimate Patti Austin - 2007, FLAC (image+.cue), lossless

(Soul, R&B) [CD] Patti Austin - Intimate Patti Austin - 2007, FLAC (image+.cue), lossless
Треклист:
Patti Austin - Intimate Patti Austin Жанр: Soul, R&B
Носитель: CD
Год издания: 2007
Издатель (лейбл): Mosaic Contemporary
Номер по каталогу: MSC 8001
Аудиокодек: FLAC (*.flac)
Тип рипа: image+.cue
Битрейт аудио: lossless
Продолжительность: 51:33
Rip by Boris1
Наличие сканов в содержимом раздачи: да
Треклист:
01. Stop, Look, Listen (To Your Heart) (3:10)
02. The Island (3:48)
03. Baby, Come To Me (3:36)
04. If I Believed (3:28)
05. Summer Is The Coldest Time Of The Year (5:18)
06. Cry Me A River (4:21)
07. Spring Can Really Hang Up The Most (5:09)
08. Any Other Fool (5:07)
09. In My Life (4:05)
10. Trough The Test Of Time (5:08)
11. If This Time Is The Last Time (4:45)
12. Love's Been Kind To Me Lately (3:39)
 
Лог создания рипа
Exact Audio Copy V1.0 beta 3 from 29. August 2011
EAC extraction logfile from 26. May 2017, 10:07
Patti Austin / Intimate
Used drive : PIONEER BD-RW BDR-TD03 Adapter: 0 ID: 1
Read mode : Secure
Utilize accurate stream : Yes
Defeat audio cache : Yes
Make use of C2 pointers : No
Read offset correction : 667
Overread into Lead-In and Lead-Out : No
Fill up missing offset samples with silence : Yes
Delete leading and trailing silent blocks : No
Null samples used in CRC calculations : Yes
Used interface : Native Win32 interface for Win NT & 2000
Used output format : User Defined Encoder
Selected bitrate : 768 kBit/s
Quality : High
Add ID3 tag : No
Command line compressor : C:\Program Files (x86)\Exact Audio Copy\FLAC\FLAC.EXE
Additional command line options : -6 -V -T "ARTIST=%artist%" -T "TITLE=%title%" -T "ALBUM=%albumtitle%" -T "DATE=%year%" -T "TRACKNUMBER=%tracknr%" -T "GENRE=%genre%" -T "COMMENT=%comment%" -T "BAND=%albuminterpret%" -T "ALBUMARTIST=%albuminterpret%" -T "COMPOSER=%composer%" %haslyrics%--tag-from-file=LYRICS="%lyricsfile%"%haslyrics% -T "DISCNUMBER=%cdnumber%" -T "TOTALDISCS=%totalcds%" -T "TOTALTRACKS=%numtracks%" %hascover%--picture="%coverfile%"%hascover% %source% -o %dest%
TOC of the extracted CD
Track | Start | Length | Start sector | End sector
---------------------------------------------------------
1 | 0:00.00 | 3:10.07 | 0 | 14256
2 | 3:10.07 | 3:47.44 | 14257 | 31325
3 | 6:57.51 | 3:36.19 | 31326 | 47544
4 | 10:33.70 | 3:28.10 | 47545 | 63154
5 | 14:02.05 | 5:17.72 | 63155 | 87001
6 | 19:20.02 | 4:20.73 | 87002 | 106574
7 | 23:41.00 | 5:09.36 | 106575 | 129785
8 | 28:50.36 | 5:07.16 | 129786 | 152826
9 | 33:57.52 | 4:04.62 | 152827 | 171188
10 | 38:02.39 | 5:07.40 | 171189 | 194253
11 | 43:10.04 | 4:44.41 | 194254 | 215594
12 | 47:54.45 | 3:38.64 | 215595 | 232008
Range status and errors
Selected range
Filename C:\Users\Deris\Desktop\kpnemo.eu\Paustintim\Patti Austin - Intimate.wav
Peak level 99.8 %
Extraction speed 4.7 X
Range quality 99.9 %
Test CRC 759830C7
Copy CRC 759830C7
Copy OK
No errors occurred
AccurateRip summary
Track 1 accurately ripped (confidence 5) [5844F601] (AR v2)
Track 2 accurately ripped (confidence 5) [BADCB510] (AR v2)
Track 3 accurately ripped (confidence 5) [610F44EC] (AR v2)
Track 4 accurately ripped (confidence 5) [6BFC524C] (AR v2)
Track 5 accurately ripped (confidence 5) [45EE28DA] (AR v2)
Track 6 accurately ripped (confidence 5) [AA43E81C] (AR v2)
Track 7 accurately ripped (confidence 5) [00476438] (AR v2)
Track 8 accurately ripped (confidence 5) [2F087B7B] (AR v2)
Track 9 accurately ripped (confidence 5) [8AD526DE] (AR v2)
Track 10 accurately ripped (confidence 5) [2BA8D18B] (AR v2)
Track 11 accurately ripped (confidence 5) [3C9CFC8C] (AR v2)
Track 12 accurately ripped (confidence 5) [686A6FC7] (AR v2)
All tracks accurately ripped
End of status report
---- CUETools DB Plugin V2.1.3
[CTDB TOCID: RiJGHZRacf59budiqXHI_g9Mt0I-] found, Submit result: already submitted
[d7271327] (4/4) Accurately ripped
==== Log checksum 5B069FE9C3EC446A862FA274515A26E2369E4B58CA28AF3DFE6C7E1CDA9995D0 ====
 
Содержание индексной карты (.CUE)
REM GENRE Jazz
REM DATE 2007
REM DISCID A20C150C
REM COMMENT "ExactAudioCopy v1.0b3"
PERFORMER "Patti Austin"
TITLE "Intimate"
FILE "Patti Austin - Intimate.flac" WAVE
TRACK 01 AUDIO
TITLE "Stop, Look, Listen (To Your Heart)"
PERFORMER "Patti Austin"
INDEX 01 00:00:00
TRACK 02 AUDIO
TITLE "The Island"
PERFORMER "Patti Austin"
INDEX 01 03:10:07
TRACK 03 AUDIO
TITLE "Baby, Come To Me"
PERFORMER "Patti Austin"
INDEX 01 06:57:51
TRACK 04 AUDIO
TITLE "If I Believed"
PERFORMER "Patti Austin"
INDEX 00 10:32:38
INDEX 01 10:33:70
TRACK 05 AUDIO
TITLE "Summer Is The Coldest Time Of The Year"
PERFORMER "Patti Austin"
INDEX 01 14:02:05
TRACK 06 AUDIO
TITLE "Cry Me A River"
PERFORMER "Patti Austin"
INDEX 00 19:18:62
INDEX 01 19:20:02
TRACK 07 AUDIO
TITLE "Spring Can Really Hang Up The Most"
PERFORMER "Patti Austin"
INDEX 01 23:41:00
TRACK 08 AUDIO
TITLE "Any Other Fool"
PERFORMER "Patti Austin"
INDEX 00 28:49:13
INDEX 01 28:50:36
TRACK 09 AUDIO
TITLE "In My Life"
PERFORMER "Patti Austin"
INDEX 01 33:57:52
TRACK 10 AUDIO
TITLE "Trough The Test Of Time"
PERFORMER "Patti Austin"
INDEX 00 38:00:74
INDEX 01 38:02:39
TRACK 11 AUDIO
TITLE "If This Time Is The Last Time"
PERFORMER "Patti Austin"
INDEX 01 43:10:04
TRACK 12 AUDIO
TITLE "Love's Been Kind To Me Lately"
PERFORMER "Patti Austin"
INDEX 00 47:52:70
INDEX 01 47:54:45
Приватный:
Нет (DHT включён)
Размер:
440.93 Мб (462,345,081 байт) » файлов: 12
Участники:
0 раздают, 0 качают (0 участников всего)
Внешние участники:
2 раздают, 1 качают (3 участников всего) [ Обновить ]
Есть вопросы - пишите личное сообщение пользователю M0p94ok.
13:40
117
Нет комментариев. Ваш будет первым!