Поиск

(Jazz, RnB, Soul, Big Band, Disco) [CD] Quincy Jones - Q's Jook Joint - 1995, FLAC (image+.cue), lossless

(Jazz, RnB, Soul, Big Band, Disco) [CD] Quincy Jones - Q's Jook Joint - 1995, FLAC (image+.cue), lossless
Треклист:
Quincy Jones / Q's Jook Joint
Жанр: Jazz, RnB, Soul, Big Band, Disco
Носитель: CD
Страна-производитель диска (релиза): USA
Год издания: 1995
Издатель (лейбл): Qwest Records, Warner Bros.
Номер по каталогу: 9 45875-2
Аудиокодек: FLAC (*.flac)
Тип рипа: image+.cue
Битрейт аудио: lossless
Продолжительность: 01:09:43
Источник (релизер): Boris1
Наличие сканов в содержимом раздачи: да
Треклист:
01. Jook Joint Intro (feat. Kid Capri, LL Cool J, James Moody, Stevie Wonder, etc.) (1:32)
02. Let The Good Times Roll (feat. Stevie Wonder, Bono & Ray Charles) (2:55)
03. Cool Joe, Mean Joe (Killer Joe) (feat. Tone Loc, Queen Latifah & Nancy Wilson) (7:32)
04. You Put A Move On My Heart (feat. Tamia) (6:13)
05. Rock With You (feat. Brandy, Heavy D & Siedah Garrett) (4:09)
06. Moody's Mood For Love (feat. Brian McKnight, Rachelle Ferrell, Take 6 & James Moody) (4:18)
07. Stomp (feat. Luke Cresswell, Fiona Wilkes, Carl Smith, Melle Mel, Coolio, Yo-Yo, Chaka Khan (6:15)
08. Jook Joint Reprise (feat. Ray Charles & Funkmaster Flex) (0:56)
09. Do Nothin' Till You Hear From Me (feat. Phil Collins) (3:57)
10. Is It Love That We're Missin' (feat. Gloria Estefan & Warren Wiebe) (4:45)
11. Heaven's Girl (feat. R. Kelly, Ron Isley, Aaron Hall, Charlie Wilson & Naomi Campbell) (5:26)
12. Stuff Like That (feat. Charlie Wilson, Ray Charles, Brandy, Chaka Khan, Ashford & Simpson) (5:45)
13. Slow Jams (feat. SWV, Babyface, Portrait & Barry White) (7:31)
14. At The End Of The Day (Grace) (feat. Toots Thielemans, Barry White & Mervyn Warren) (7:41)
15. Jook Joint Outro (feat. Barry White, Toots Thielemans & Tamia) (0:48)
 
Отчёт EAC
Exact Audio Copy V1.0 beta 3 from 29. August 2011
EAC extraction logfile from 18. May 2017, 23:24
Quincy Jones / Q's Jook Joint
Used drive : PIONEER BD-RW BDR-TD03 Adapter: 0 ID: 1
Read mode : Secure
Utilize accurate stream : Yes
Defeat audio cache : Yes
Make use of C2 pointers : No
Read offset correction : 667
Overread into Lead-In and Lead-Out : No
Fill up missing offset samples with silence : Yes
Delete leading and trailing silent blocks : No
Null samples used in CRC calculations : Yes
Used interface : Native Win32 interface for Win NT & 2000
Used output format : User Defined Encoder
Selected bitrate : 768 kBit/s
Quality : High
Add ID3 tag : No
Command line compressor : C:\Program Files (x86)\Exact Audio Copy\FLAC\FLAC.EXE
Additional command line options : -6 -V -T "ARTIST=%artist%" -T "TITLE=%title%" -T "ALBUM=%albumtitle%" -T "DATE=%year%" -T "TRACKNUMBER=%tracknr%" -T "GENRE=%genre%" -T "COMMENT=%comment%" -T "BAND=%albuminterpret%" -T "ALBUMARTIST=%albuminterpret%" -T "COMPOSER=%composer%" %haslyrics%--tag-from-file=LYRICS="%lyricsfile%"%haslyrics% -T "DISCNUMBER=%cdnumber%" -T "TOTALDISCS=%totalcds%" -T "TOTALTRACKS=%numtracks%" %hascover%--picture="%coverfile%"%hascover% %source% -o %dest%
TOC of the extracted CD
Track | Start | Length | Start sector | End sector
---------------------------------------------------------
1 | 0:00.32 | 1:32.38 | 32 | 6969
2 | 1:32.70 | 2:55.37 | 6970 | 20131
3 | 4:28.32 | 7:32.33 | 20132 | 54064
4 | 12:00.65 | 6:13.32 | 54065 | 82071
5 | 18:14.22 | 4:09.08 | 82072 | 100754
6 | 22:23.30 | 4:18.37 | 100755 | 120141
7 | 26:41.67 | 6:15.60 | 120142 | 148326
8 | 32:57.52 | 0:56.08 | 148327 | 152534
9 | 33:53.60 | 3:57.67 | 152535 | 170376
10 | 37:51.52 | 4:45.45 | 170377 | 191796
11 | 42:37.22 | 5:26.58 | 191797 | 216304
12 | 48:04.05 | 5:45.55 | 216305 | 242234
13 | 53:49.60 | 7:31.60 | 242235 | 276119
14 | 61:21.45 | 7:41.60 | 276120 | 310754
15 | 69:03.30 | 0:48.22 | 310755 | 314376
Range status and errors
Selected range
Filename C:\Users\Deris\Desktop\kpnemo.eu\QuiJon95\Quincy Jones - Q's Jook Joint.wav
Peak level 100.0 %
Extraction speed 5.1 X
Range quality 100.0 %
Test CRC D9C822AB
Copy CRC D9C822AB
Copy OK
No errors occurred
AccurateRip summary
Track 1 accurately ripped (confidence 40) [77B6389B] (AR v2)
Track 2 accurately ripped (confidence 39) [A8B8A05A] (AR v2)
Track 3 accurately ripped (confidence 40) [3B7981D4] (AR v2)
Track 4 accurately ripped (confidence 40) [6CD7A9E5] (AR v2)
Track 5 accurately ripped (confidence 40) [8B9C96AF] (AR v2)
Track 6 accurately ripped (confidence 40) [29E4BDDD] (AR v2)
Track 7 accurately ripped (confidence 40) [8DC21FA9] (AR v2)
Track 8 accurately ripped (confidence 40) [F15DB329] (AR v2)
Track 9 accurately ripped (confidence 38) [D5D0F01B] (AR v2)
Track 10 accurately ripped (confidence 40) [2DD952C1] (AR v2)
Track 11 accurately ripped (confidence 40) [B809CA32] (AR v2)
Track 12 accurately ripped (confidence 38) [0EBD2456] (AR v2)
Track 13 accurately ripped (confidence 38) [558722F2] (AR v2)
Track 14 accurately ripped (confidence 35) [94E0942E] (AR v2)
Track 15 accurately ripped (confidence 39) [F7266FA8] (AR v2)
All tracks accurately ripped
End of status report
---- CUETools DB Plugin V2.1.3
[CTDB TOCID: _tL0QJwbqOso4hzNoup0KaoOniw-] found, Submit result: discs with pregaps not supported in this protocol version
[bc8479fe] (01/27) No match
[a881564e] (23/27) Differs in 0 samples @
[a01557b7] (01/27) No match
[f70a738c] (01/27) No match
[2b96d708] (01/27) No match
You can use CUETools to repair this rip.
==== Log checksum 0EBAFC3CD384F6E8135D0CAB6BB3E192DBE57FEC63901F3839980F7DB02C92F3 ====
 
Содержание индексной карты (.CUE)
REM GENRE Soul
REM DATE 1995
REM DISCID D4105F0F
REM COMMENT "ExactAudioCopy v1.0b3"
PERFORMER "Quincy Jones"
TITLE "Q's Jook Joint"
FILE "Quincy Jones - Q's Jook Joint.flac" WAVE
TRACK 01 AUDIO
TITLE "Jook Joint Intro (feat. Kid Capri, LL Cool J, James Moody, Stevie Wonder, etc.)"
PERFORMER "Quincy Jones"
INDEX 00 00:00:00
INDEX 01 00:00:32
TRACK 02 AUDIO
TITLE "Let The Good Times Roll (feat. Stevie Wonder, Bono & Ray Charles)"
PERFORMER "Quincy Jones"
INDEX 00 01:32:67
INDEX 01 01:32:70
TRACK 03 AUDIO
TITLE "Cool Joe, Mean Joe (Killer Joe) (feat. Tone Loc, Queen Latifah & Nancy Wilson)"
PERFORMER "Quincy Jones"
INDEX 00 04:28:30
INDEX 01 04:28:32
TRACK 04 AUDIO
TITLE "You Put A Move On My Heart (feat. Tamia)"
PERFORMER "Quincy Jones"
INDEX 00 12:00:62
INDEX 01 12:00:65
TRACK 05 AUDIO
TITLE "Rock With You (feat. Brandy, Heavy D & Siedah Garrett)"
PERFORMER "Quincy Jones"
INDEX 00 18:14:20
INDEX 01 18:14:22
TRACK 06 AUDIO
TITLE "Moody's Mood For Love (feat. Brian McKnight, Rachelle Ferrell, Take 6 & James..."
PERFORMER "Quincy Jones"
INDEX 00 22:23:27
INDEX 01 22:23:30
TRACK 07 AUDIO
TITLE "Stomp (feat. Luke Cresswell, Fiona Wilkes, Carl Smith, Melle Mel, Coolio, Yo-..."
PERFORMER "Quincy Jones"
INDEX 00 26:41:66
INDEX 01 26:41:67
TRACK 08 AUDIO
TITLE "Jook Joint Reprise (feat. Ray Charles & Funkmaster Flex)"
PERFORMER "Quincy Jones"
INDEX 00 32:57:50
INDEX 01 32:57:52
TRACK 09 AUDIO
TITLE "Do Nothin' Till You Hear From Me (feat. Phil Collins)"
PERFORMER "Quincy Jones"
INDEX 00 33:53:57
INDEX 01 33:53:60
TRACK 10 AUDIO
TITLE "Is It Love That We're Missin' (feat. Gloria Estefan & Warren Wiebe)"
PERFORMER "Quincy Jones"
INDEX 00 37:51:50
INDEX 01 37:51:52
TRACK 11 AUDIO
TITLE "Heaven's Girl (feat. R. Kelly, Ron Isley, Aaron Hall, Charlie Wilson & Naomi ..."
PERFORMER "Quincy Jones"
INDEX 00 42:37:20
INDEX 01 42:37:22
TRACK 12 AUDIO
TITLE "Stuff Like That (feat. Charlie Wilson, Ray Charles, Brandy, Chaka Khan, Ashf..."
PERFORMER "Quincy Jones"
INDEX 00 48:04:02
INDEX 01 48:04:05
TRACK 13 AUDIO
TITLE "Slow Jams (feat. SWV, Babyface, Portrait & Barry White)"
PERFORMER "Quincy Jones"
INDEX 00 53:49:58
INDEX 01 53:49:60
TRACK 14 AUDIO
TITLE "At The End Of The Day (Grace) (feat. Toots Thielemans, Barry White & Mervyn W..."
PERFORMER "Quincy Jones"
INDEX 00 61:21:42
INDEX 01 61:21:45
TRACK 15 AUDIO
TITLE "Jook Joint Outro (feat. Barry White, Toots Thielemans & Tamia)"
PERFORMER "Quincy Jones"
INDEX 00 69:03:27
INDEX 01 69:03:30
 
DR Log
foobar2000 1.3.13 / Замер динамического диапазона (DR) 1.1.1
Дата отчёта: 2017-05-18 23:30:20
--------------------------------------------------------------------------------
Анализ: Quincy Jones / Q's Jook Joint
--------------------------------------------------------------------------------
DR Пики RMS Продолжительность трека
--------------------------------------------------------------------------------
DR14 -0.71 дБ -21.31 дБ 1:33 01-Jook Joint Intro (feat. Kid Capri, LL Cool J, James Moody, Stevie Wonder, etc.)
DR9 0.00 дБ -12.41 дБ 2:55 02-Let The Good Times Roll (feat. Stevie Wonder, Bono & Ray Charles)
DR9 0.00 дБ -11.63 дБ 7:32 03-Cool Joe, Mean Joe (Killer Joe) (feat. Tone Loc, Queen Latifah & Nancy Wilson)
DR8 0.00 дБ -11.95 дБ 6:13 04-You Put A Move On My Heart (feat. Tamia)
DR11 0.00 дБ -12.33 дБ 4:09 05-Rock With You (feat. Brandy, Heavy D & Siedah Garrett)
DR9 0.00 дБ -11.93 дБ 4:18 06-Moody's Mood For Love (feat. Brian McKnight, Rachelle Ferrell, Take 6 & James...
DR9 0.00 дБ -10.74 дБ 6:16 07-Stomp (feat. Luke Cresswell, Fiona Wilkes, Carl Smith, Melle Mel, Coolio, Yo-...
DR11 -0.30 дБ -14.82 дБ 0:56 08-Jook Joint Reprise (feat. Ray Charles & Funkmaster Flex)
DR9 0.00 дБ -11.87 дБ 3:58 09-Do Nothin' Till You Hear From Me (feat. Phil Collins)
DR10 0.00 дБ -11.82 дБ 4:46 10-Is It Love That We're Missin' (feat. Gloria Estefan & Warren Wiebe)
DR11 0.00 дБ -12.34 дБ 5:27 11-Heaven's Girl (feat. R. Kelly, Ron Isley, Aaron Hall, Charlie Wilson & Naomi ...
DR9 0.00 дБ -11.10 дБ 5:46 12-Stuff Like That (feat. Charlie Wilson, Ray Charles, Brandy, Chaka Khan, Ashf...
DR9 0.00 дБ -12.60 дБ 7:32 13-Slow Jams (feat. SWV, Babyface, Portrait & Barry White)
DR10 -0.28 дБ -14.47 дБ 7:42 14-At The End Of The Day (Grace) (feat. Toots Thielemans, Barry White & Mervyn W...
DR17 -0.04 дБ -24.23 дБ 0:48 15-Jook Joint Outro (feat. Barry White, Toots Thielemans & Tamia)
--------------------------------------------------------------------------------
Количество треков: 15
Реальные значения DR: DR10
Частота: 44100 Гц
Каналов: 2
Разрядность: 16
Битрейт: 902 кбит/с
Кодек: FLAC
================================================================================
 
Состав
Quincy Jones (programming);
Bono,
Stevie Wonder,
Lester Young,
Barry White,
Ray Charles,
R. Kelly,
Shaquille O'Neal,
Phil Collins,
Queen Latifah,
Gloria Estefan,
Brian McKnight,
Chaka Khan,
Naomi Campbell,
John Clayton (conductor);
Funkmaster Flex,
Tone Loc,
Nancy Wilson,
Tamia,
Brandy,
Heavy D,
Rachelle Ferrell,
Mr. X,
Melle Mel,
Coolio,
Yo-Yo,
Charlie Wilson,
Luniz,
Warren Wiebe,
Ron Isley,
Aaron Hall,
Nick Ashford,
Valerie Simpson,
Babyface,
Siedah Garrett,
Patti Austin,
Will Wheaton (vocals);
Toots Thielemans
Приватный:
Нет (DHT включён)
Размер:
785.12 Мб (823,257,761 байт) » файлов: 23
Участники:
0 раздают, 0 качают (0 участников всего)
Внешние участники:
5 раздают, 2 качают (7 участников всего) [ Обновить ]
No seeders - write a personal message to user M0p94ok. Нет сидеров - пишите личное сообщение пользователю M0p94ok.
13:39
80
Нет комментариев. Ваш будет первым!