Поиск

(Jazz-Pop, Jazz-Rock, Latin, Funk / Soul, Folk) [CD] Jesse Harris - Cosmo - 2010, FLAC (tracks+.cue), lossless

(Jazz-Pop, Jazz-Rock, Latin, Funk / Soul, Folk) [CD] Jesse Harris - Cosmo - 2010, FLAC (tracks+.cue), lossless
Треклист:
Jesse Harris / Cosmo
Жанр: Jazz-Pop, Jazz-Rock, Latin, Funk / Soul, Folk
Носитель: CD
Год издания: 2010
Издатель (лейбл): Tzadik Records‎
Номер по каталогу: TZ 7635
Страна исполнителя (группы): США
Аудиокодек: FLAC (*.flac)
Тип рипа: tracks+.cue
Битрейт аудио: lossless
Продолжительность: 00:38:53
Источник (релизер): ?
Наличие сканов в содержимом раздачи: да
Треклист:
01. Little Star (02:56)
02. The Waves (02:46)
03. Strange Bird (02:39)
04. Pixote (02:44)
05. Cosmo (03:52)
06. I Think You're Hiding Something (02:15)
07. Somewhere Down The Road (03:33)
08. Wish I Was A Bird (02:43)
09. Dear Dorothy (04:05)
10. Over The Bridge (And Into Queens) (04:22)
11. No Way Out (04:14)
12. Wedding Song (02:46)
 
Лог создания рипа
Exact Audio Copy V1.0 beta 3 from 29. August 2011
EAC extraction logfile from 9. June 2012, 17:03
Jesse Harris / Cosmo
Used drive : PBDS DVD+-RW DS-8W1P Adapter: 0 ID: 0
Read mode : Secure
Utilize accurate stream : Yes
Defeat audio cache : Yes
Make use of C2 pointers : No
Read offset correction : 594
Overread into Lead-In and Lead-Out : No
Fill up missing offset samples with silence : Yes
Delete leading and trailing silent blocks : No
Null samples used in CRC calculations : Yes
Used interface : Native Win32 interface for Win NT & 2000
Gap handling : Appended to previous track
Used output format : Internal WAV Routines
Sample format : 44.100 Hz; 16 Bit; Stereo
TOC of the extracted CD
Track | Start | Length | Start sector | End sector
---------------------------------------------------------
1 | 0:00.00 | 2:55.70 | 0 | 13194
2 | 2:55.70 | 2:45.45 | 13195 | 25614
3 | 5:41.40 | 2:39.01 | 25615 | 37540
4 | 8:20.41 | 2:44.12 | 37541 | 49852
5 | 11:04.53 | 3:52.00 | 49853 | 67252
6 | 14:56.53 | 2:15.17 | 67253 | 77394
7 | 17:11.70 | 3:33.01 | 77395 | 93370
8 | 20:44.71 | 2:42.42 | 93371 | 105562
9 | 23:27.38 | 4:05.09 | 105563 | 123946
10 | 27:32.47 | 4:22.28 | 123947 | 143624
11 | 31:55.00 | 4:14.53 | 143625 | 162727
12 | 36:09.53 | 2:45.71 | 162728 | 175173
Track 1
Filename F:\Upload\Jesse Harris - Cosmo (2010)\01 Little Star.wav
Pre-gap length 0:00:02.00
Peak level 96.6 %
Extraction speed 0.9 X
Track quality 99.9 %
Test CRC 8ED10BAA
Copy CRC 8ED10BAA
Track not present in AccurateRip database
Copy OK
Track 2
Filename F:\Upload\Jesse Harris - Cosmo (2010)\02 The Waves.wav
Peak level 96.6 %
Extraction speed 1.0 X
Track quality 100.0 %
Test CRC BC71F76B
Copy CRC BC71F76B
Track not present in AccurateRip database
Copy OK
Track 3
Filename F:\Upload\Jesse Harris - Cosmo (2010)\03 Strange Bird.wav
Peak level 92.9 %
Extraction speed 1.0 X
Track quality 99.9 %
Test CRC FFA79FD6
Copy CRC FFA79FD6
Track not present in AccurateRip database
Copy OK
Track 4
Filename F:\Upload\Jesse Harris - Cosmo (2010)\04 Pixote.wav
Peak level 91.1 %
Extraction speed 1.1 X
Track quality 100.0 %
Test CRC 70CD8DD2
Copy CRC 70CD8DD2
Track not present in AccurateRip database
Copy OK
Track 5
Filename F:\Upload\Jesse Harris - Cosmo (2010)\05 Cosmo.wav
Peak level 96.6 %
Extraction speed 1.2 X
Track quality 100.0 %
Test CRC DD6B0C13
Copy CRC DD6B0C13
Track not present in AccurateRip database
Copy OK
Track 6
Filename F:\Upload\Jesse Harris - Cosmo (2010)\06 I Think You're Hiding Something.wav
Peak level 98.4 %
Extraction speed 1.2 X
Track quality 100.0 %
Test CRC A4B7C1C2
Copy CRC A4B7C1C2
Track not present in AccurateRip database
Copy OK
Track 7
Filename F:\Upload\Jesse Harris - Cosmo (2010)\07 Somewhere Down The Road.wav
Peak level 86.6 %
Extraction speed 1.3 X
Track quality 100.0 %
Test CRC 548B458B
Copy CRC 548B458B
Track not present in AccurateRip database
Copy OK
Track 8
Filename F:\Upload\Jesse Harris - Cosmo (2010)\08 Wish I Was A Bird.wav
Peak level 96.6 %
Extraction speed 1.4 X
Track quality 100.0 %
Test CRC DF465D5D
Copy CRC DF465D5D
Track not present in AccurateRip database
Copy OK
Track 9
Filename F:\Upload\Jesse Harris - Cosmo (2010)\09 Dear Dorothy.wav
Peak level 96.2 %
Extraction speed 1.5 X
Track quality 100.0 %
Test CRC 6863EF82
Copy CRC 6863EF82
Track not present in AccurateRip database
Copy OK
Track 10
Filename F:\Upload\Jesse Harris - Cosmo (2010)\10 Over The Bridge (And Into Queens).wav
Peak level 97.5 %
Extraction speed 1.6 X
Track quality 100.0 %
Test CRC 1213AD74
Copy CRC 1213AD74
Track not present in AccurateRip database
Copy OK
Track 11
Filename F:\Upload\Jesse Harris - Cosmo (2010)\11 No Way out.wav
Peak level 98.8 %
Extraction speed 1.7 X
Track quality 100.0 %
Test CRC 8658CB81
Copy CRC 8658CB81
Track not present in AccurateRip database
Copy OK
Track 12
Filename F:\Upload\Jesse Harris - Cosmo (2010)\12 Wedding Song.wav
Peak level 96.6 %
Extraction speed 1.6 X
Track quality 100.0 %
Test CRC 4A27C289
Copy CRC 4A27C289
Track not present in AccurateRip database
Copy OK
None of the tracks are present in the AccurateRip database
No errors occurred
End of status report
 
Содержание индексной карты (.CUE)
REM DISCID 9C091F0C
REM COMMENT "ExactAudioCopy v1.0b3"
PERFORMER "Jesse Harris"
TITLE "Cosmo"
FILE "01 Little Star.wav" WAVE
TRACK 01 AUDIO
TITLE "Little Star"
PERFORMER "Jesse Harris"
INDEX 01 00:00:00
FILE "02 The Waves.wav" WAVE
TRACK 02 AUDIO
TITLE "The Waves"
PERFORMER "Jesse Harris"
INDEX 01 00:00:00
FILE "03 Strange Bird.wav" WAVE
TRACK 03 AUDIO
TITLE "Strange Bird"
PERFORMER "Jesse Harris"
INDEX 01 00:00:00
FILE "04 Pixote.wav" WAVE
TRACK 04 AUDIO
TITLE "Pixote"
PERFORMER "Jesse Harris"
INDEX 01 00:00:00
FILE "05 Cosmo.wav" WAVE
TRACK 05 AUDIO
TITLE "Cosmo"
PERFORMER "Jesse Harris"
INDEX 01 00:00:00
FILE "06 I Think You're Hiding Something.wav" WAVE
TRACK 06 AUDIO
TITLE "I Think You're Hiding Something"
PERFORMER "Jesse Harris"
INDEX 01 00:00:00
FILE "07 Somewhere Down The Road.wav" WAVE
TRACK 07 AUDIO
TITLE "Somewhere Down The Road"
PERFORMER "Jesse Harris"
INDEX 01 00:00:00
FILE "08 Wish I Was A Bird.wav" WAVE
TRACK 08 AUDIO
TITLE "Wish I Was A Bird"
PERFORMER "Jesse Harris"
INDEX 01 00:00:00
FILE "09 Dear Dorothy.wav" WAVE
TRACK 09 AUDIO
TITLE "Dear Dorothy"
PERFORMER "Jesse Harris"
INDEX 01 00:00:00
FILE "10 Over The Bridge (And Into Queens).wav" WAVE
TRACK 10 AUDIO
TITLE "Over The Bridge (And Into Queens)"
PERFORMER "Jesse Harris"
INDEX 01 00:00:00
FILE "11 No Way out.wav" WAVE
TRACK 11 AUDIO
TITLE "No Way out"
PERFORMER "Jesse Harris"
INDEX 01 00:00:00
FILE "12 Wedding Song.wav" WAVE
TRACK 12 AUDIO
TITLE "Wedding Song"
PERFORMER "Jesse Harris"
INDEX 01 00:00:00
 
Об альбоме (сборнике)
Editorial Reviews
One of our greatest songwriters, Jesse Harris, is a Grammy Award winning composer whose songs have been recorded by Norah Jones, Smokey Robinson, Solomon Burke, Willie Nelson, Emmylou Harris and many others. Here he returns to his roots with a fabulous group of friends to present an instrumental program of his classic songs and some brilliant new originals composed especially for this CD. Blending folk, soul, Brazilian and rock music into his own unique and personal world, Jesse's new CD is a joyous celebration of life, love, melody and mystery. Instrumental pop in the tradition of Burt Bacharach with a 21st century twist!Discogs | Amazon
Приватный:
Нет (DHT включён)
Размер:
214.28 Мб (224,688,463 байт) » файлов: 21
Участники:
0 раздают, 0 качают (0 участников всего)
Внешние участники:
2 раздают, 1 качают (3 участников всего) [ Обновить ]
No seeders - write personal message to user M0p94ok. Нет сидеров - пишите личное сообщение пользователю M0p94ok.
13:39
81
Нет комментариев. Ваш будет первым!