Поиск

(Funk, Soul) [CD] Bobbi Humphrey - Tailor Made - 1977 (2014), FLAC (tracks+.cue), lossless

(Funk, Soul) [CD] Bobbi Humphrey - Tailor Made - 1977 (2014), FLAC (tracks+.cue), lossless
Треклист:
Bobbi Humphrey - Tailor Made
Жанр: Funk, Soul
Носитель: CD
Страна-производитель диска (релиза): Великобритания
Год издания: 2014
Издатель (лейбл): Funkytowngrooves (FTG Jazz Fusion Classics)
Номер по каталогу: FTGJZ-003
Страна исполнителя (группы): США
Аудиокодек: FLAC (*.flac)
Тип рипа: tracks+.cue
Битрейт аудио: lossless
Продолжительность: 37:46
Источник (релизер): swisscheesedup
Наличие сканов в содержимом раздачи: нет
Треклист:
01. Dancin' to Keep from Cryin' (Fauntleroy-Scarborough) - 4:30
02. Lover to Lover (Scarborough) - 5:58
03. Tailor Made (Amani-Hunt) - 4:44
04. Theme I (Straughter) - 4:36
05. Jealousy (Clark-Scarborough) - 5:07
06. I Started Living (Duncan) - 4:03
07. Most of All (Amani-Hunt) - 4:22
08. Fajehzo (Ashford) - 4:26
 
Лог создания рипа
Exact Audio Copy V1.3 from 2. September 2016
EAC extraction logfile from 3. April 2017, 18:42
Bobbi Humphrey / Tailor Made
Used drive : HP DVD Writer 1260t Adapter: 1 ID: 0
Read mode : Secure
Utilize accurate stream : Yes
Defeat audio cache : Yes
Make use of C2 pointers : No
Read offset correction : 6
Overread into Lead-In and Lead-Out : No
Fill up missing offset samples with silence : Yes
Delete leading and trailing silent blocks : No
Null samples used in CRC calculations : Yes
Used interface : Native Win32 interface for Win NT & 2000
Gap handling : Appended to previous track
Used output format : User Defined Encoder
Selected bitrate : 128 kBit/s
Quality : High
Add ID3 tag : No
Command line compressor : C:\Program Files (x86)\Exact Audio Copy\Flac\flac.exe
Additional command line options : -8 -V -T "ARTIST=%artist%" -T "TITLE=%title%" -T "ALBUM=%albumtitle%" -T "DATE=%year%" -T "TRACKNUMBER=%tracknr%" -T "GENRE=%genre%" -T "PERFORMER=%albuminterpret%" -T "COMPOSER=%composer%" %haslyrics%--tag-from-file=LYRICS="%lyricsfile%"%haslyrics% -T "ALBUMARTIST=%albumartist%" -T "DISCNUMBER=%cdnumber%" -T "TOTALDISCS=%totalcds%" -T "TOTALTRACKS=%numtracks%" -T "COMMENT=%comment%" %source% -o %dest%
TOC of the extracted CD
Track | Start | Length | Start sector | End sector
---------------------------------------------------------
1 | 0:00.00 | 4:29.64 | 0 | 20238
2 | 4:29.64 | 5:57.38 | 20239 | 47051
3 | 10:27.27 | 4:43.42 | 47052 | 68318
4 | 15:10.69 | 4:35.42 | 68319 | 88985
5 | 19:46.36 | 5:06.72 | 88986 | 112007
6 | 24:53.33 | 4:03.35 | 112008 | 130267
7 | 28:56.68 | 4:22.16 | 130268 | 149933
8 | 33:19.09 | 4:25.54 | 149934 | 169862
Track 1
Filename F:\Music Place\FLAC & WAV\BOBBI HUMPHREY\Bobbi Humphrey - Tailor Made (1977)[FTG FTGJZ003][2014 FLAC]\01. Bobbi Humphrey - Dancin' To Keep From Cryin'.wav
Pre-gap length 0:00:02.00
Peak level 99.0 %
Extraction speed 3.4 X
Track quality 100.0 %
Test CRC BD309700
Copy CRC BD309700
Accurately ripped (confidence 4) [A2A98F2C] (AR v2)
Copy OK
Track 2
Filename F:\Music Place\FLAC & WAV\BOBBI HUMPHREY\Bobbi Humphrey - Tailor Made (1977)[FTG FTGJZ003][2014 FLAC]\02. Bobbi Humphrey - Lover To Lover.wav
Pre-gap length 0:00:02.00
Peak level 99.2 %
Extraction speed 4.0 X
Track quality 100.0 %
Test CRC 4EB7F10A
Copy CRC 4EB7F10A
Accurately ripped (confidence 4) [B41902CF] (AR v2)
Copy OK
Track 3
Filename F:\Music Place\FLAC & WAV\BOBBI HUMPHREY\Bobbi Humphrey - Tailor Made (1977)[FTG FTGJZ003][2014 FLAC]\03. Bobbi Humphrey - Tailor Made.wav
Pre-gap length 0:00:02.00
Peak level 98.4 %
Extraction speed 4.4 X
Track quality 100.0 %
Test CRC 9455C745
Copy CRC 9455C745
Accurately ripped (confidence 4) [1261BDFD] (AR v2)
Copy OK
Track 4
Filename F:\Music Place\FLAC & WAV\BOBBI HUMPHREY\Bobbi Humphrey - Tailor Made (1977)[FTG FTGJZ003][2014 FLAC]\04. Bobbi Humphrey - Theme I.wav
Pre-gap length 0:00:02.00
Peak level 97.9 %
Extraction speed 3.9 X
Track quality 99.9 %
Test CRC DCC4314D
Copy CRC DCC4314D
Accurately ripped (confidence 4) [B6E8B091] (AR v2)
Copy OK
Track 5
Filename F:\Music Place\FLAC & WAV\BOBBI HUMPHREY\Bobbi Humphrey - Tailor Made (1977)[FTG FTGJZ003][2014 FLAC]\05. Bobbi Humphrey - Jealousy.wav
Pre-gap length 0:00:02.00
Peak level 98.0 %
Extraction speed 5.1 X
Track quality 100.0 %
Test CRC C2C11B30
Copy CRC C2C11B30
Accurately ripped (confidence 4) [6F9DF306] (AR v2)
Copy OK
Track 6
Filename F:\Music Place\FLAC & WAV\BOBBI HUMPHREY\Bobbi Humphrey - Tailor Made (1977)[FTG FTGJZ003][2014 FLAC]\06. Bobbi Humphrey - I Started Living.wav
Pre-gap length 0:00:02.00
Peak level 97.7 %
Extraction speed 5.2 X
Track quality 100.0 %
Test CRC C58B4FCC
Copy CRC C58B4FCC
Accurately ripped (confidence 4) [D9D905A9] (AR v2)
Copy OK
Track 7
Filename F:\Music Place\FLAC & WAV\BOBBI HUMPHREY\Bobbi Humphrey - Tailor Made (1977)[FTG FTGJZ003][2014 FLAC]\07. Bobbi Humphrey - Most Of All.wav
Pre-gap length 0:00:02.00
Peak level 100.0 %
Extraction speed 5.5 X
Track quality 100.0 %
Test CRC 8BA09A1A
Copy CRC 8BA09A1A
Accurately ripped (confidence 4) [3674BDE3] (AR v2)
Copy OK
Track 8
Filename F:\Music Place\FLAC & WAV\BOBBI HUMPHREY\Bobbi Humphrey - Tailor Made (1977)[FTG FTGJZ003][2014 FLAC]\08. Bobbi Humphrey - Fajehzo.wav
Pre-gap length 0:00:02.00
Peak level 98.5 %
Extraction speed 5.8 X
Track quality 100.0 %
Test CRC A091F9BF
Copy CRC A091F9BF
Accurately ripped (confidence 4) [2D7D5E44] (AR v2)
Copy OK
All tracks accurately ripped
No errors occurred
End of status report
---- CUETools DB Plugin V2.1.6
[CTDB TOCID: UpOgioNmtgWzi.etcnOrgKGZ6Cs-] found
Submit result: UpOgioNmtgWzi.etcnOrgKGZ6Cs- has been confirmed
Track | CTDB Status
1 | (3/3) Accurately ripped
2 | (3/3) Accurately ripped
3 | (3/3) Accurately ripped
4 | (3/3) Accurately ripped
5 | (3/3) Accurately ripped
6 | (3/3) Accurately ripped
7 | (3/3) Accurately ripped
8 | (3/3) Accurately ripped
==== Log checksum 3526D681368575751DFCAE331527119E74A322DD4EC4B8AC5BB5FB6D5FE64F04 ====
 
Содержание индексной карты (.CUE)
REM GENRE Jazz
REM DATE 1977
REM DISCID 6408D808
REM COMMENT "ExactAudioCopy v1.3"
PERFORMER "Bobbi Humphrey"
TITLE "Tailor Made"
FILE "01 - Dancin' to Keep from Cryin'.wav" WAVE
TRACK 01 AUDIO
TITLE "Dancin' to Keep from Cryin'"
PERFORMER "Bobbi Humphrey"
INDEX 01 00:00:00
TRACK 02 AUDIO
TITLE "Lover to Lover"
PERFORMER "Bobbi Humphrey"
INDEX 00 04:27:64
FILE "02 - Lover to Lover.wav" WAVE
INDEX 01 00:00:00
TRACK 03 AUDIO
TITLE "Tailor Made"
PERFORMER "Bobbi Humphrey"
INDEX 00 05:55:38
FILE "03 - Tailor Made.wav" WAVE
INDEX 01 00:00:00
TRACK 04 AUDIO
TITLE "Theme I"
PERFORMER "Bobbi Humphrey"
INDEX 00 04:41:42
FILE "04 - Theme I.wav" WAVE
INDEX 01 00:00:00
TRACK 05 AUDIO
TITLE "Jealousy"
PERFORMER "Bobbi Humphrey"
INDEX 00 04:33:42
FILE "05 - Jealousy.wav" WAVE
INDEX 01 00:00:00
TRACK 06 AUDIO
TITLE "I Started Living"
PERFORMER "Bobbi Humphrey"
INDEX 00 05:04:72
FILE "06 - I Started Living.wav" WAVE
INDEX 01 00:00:00
TRACK 07 AUDIO
TITLE "Most of All"
PERFORMER "Bobbi Humphrey"
INDEX 00 04:01:35
FILE "07 - Most of All.wav" WAVE
INDEX 01 00:00:00
TRACK 08 AUDIO
TITLE "Fajehzo"
PERFORMER "Bobbi Humphrey"
INDEX 00 04:20:16
FILE "08 - Fajehzo.wav" WAVE
INDEX 01 00:00:00
 
Отчет CUETools
[CUETools log; Date: 15.05.2017 23:59:05; Version: 2.1.5]
[CTDB TOCID: UpOgioNmtgWzi.etcnOrgKGZ6Cs-] found.
Track | CTDB Status
1 | (4/4) Accurately ripped
2 | (4/4) Accurately ripped
3 | (4/4) Accurately ripped
4 | (4/4) Accurately ripped
5 | (4/4) Accurately ripped
6 | (4/4) Accurately ripped
7 | (4/4) Accurately ripped
8 | (4/4) Accurately ripped
[AccurateRip ID: 000c00ed-004f8764-6408d808] found.
Track [ CRC | V2 ] Status
01 [963b96ef|a2a98f2c] (0+4/4) Accurately ripped
02 [f30eb4dd|b41902cf] (0+4/4) Accurately ripped
03 [92ae62db|1261bdfd] (0+4/4) Accurately ripped
04 [589adf38|b6e8b091] (0+4/4) Accurately ripped
05 [febf7480|6f9df306] (0+4/4) Accurately ripped
06 [0144974a|d9d905a9] (0+4/4) Accurately ripped
07 [dc20fdbf|3674bde3] (0+4/4) Accurately ripped
08 [72b9fc3e|2d7d5e44] (0+4/4) Accurately ripped
Track Peak [ CRC32 ] [W/O NULL] [ LOG ]
-- 100,0 [33D5BAEB] [981BFAF1]
01 99,0 [BD309700] [9F2FAF9D] CRC32
02 99,2 [4EB7F10A] [6A3B068E] CRC32
03 98,4 [9455C745] [0A87E9E7] CRC32
04 97,9 [DCC4314D] [007CCD03] CRC32
05 98,0 [C2C11B30] [E94856D3] CRC32
06 97,7 [C58B4FCC] [4B89BB5B] CRC32
07 100,0 [8BA09A1A] [1D7BBB6D] CRC32
08 98,5 [A091F9BF] [50E22EA7] CRC32
 
Об альбоме (сборнике)
FTG Jazz Third Release is the Straight Album of Bobbi Humphrey’s 1977, Tailor Made.
Liner Notes by Alex Henderson
Re-Mastered using the Original Master Tapes by Sean Brennan, at Battery Studio’s New York
Tailor Made sees Bobbi Humphrey not just shifting labels to Epic, but also changing her musical direction. This 1977 album is a shift from the high class jazz-funk work that the Mizell brothers created for her at Blue Note, and this is the her first album where Bobbi has taken musical control. Humphrey’s decided to go down a mellower route but left in the addition of a few disco tracks for good measure.
On Tailor Made she dived head first into what would be popular and very record buying public friendly album. This album is full of lush symphonic strings, funky bass lines and a full force of backing vocals, everything that related to the mid-to-late 70’s soul and jazz. Unlike a lot of musicians who were drawing on commercialism and disco as influences at the time, this album really works.
One of the many things Bobbi Humphrey was good at was surrounding herself with class writers, musicians, producers, etc. Tailor Made was developed very tastefully. As with all her albums the flute playing is truly sublime, the production is amazing, the musicianship is faultless and this woman really was a class act.
 
Состав
Bobbi Humphrey - flute, vocals
Ernest Straughter, Mark Soskin - keyboards
Skip Scarborough - synthesizer
Ray Obiedo - guitar
Charles Meeks, Robert Russell - bass
Bill Meeker - drums
Bill Summers, Sheila Escovedo - percussion
Roger Glenn - vibraphone, marimba, wood blocks, steel drums
Sigidi, Skip Scarborough - male backing vocals
Mikki Morris, Penny Wanao, Versita Wanao - female backing vocals
Producer - Skip Scarborough.
Recorded in 1977.
Приватный:
Нет (DHT включён)
Размер:
244.05 Мб (255,904,132 байт) » файлов: 16
Участники:
0 раздают, 0 качают (0 участников всего)
Внешние участники:
3 раздают, 1 качают (4 участников всего) [ Обновить ]
No seeders - write a personal message to user M0p94ok. Нет сидеров - пишите личное сообщение пользователю M0p94ok.
13:38
92
Нет комментариев. Ваш будет первым!