Поиск

(Soul, R&B) [CD] Patti Austin - Love Is Gonna Getcha - 1991, FLAC (tracks+.cue), lossless

(Soul, R&B) [CD] Patti Austin - Love Is Gonna Getcha - 1991, FLAC (tracks+.cue), lossless
Треклист:
Patti Austin - Love Is Gonna Getcha Жанр: Soul, R&B
Носитель: CD
Год издания: 1991
Издатель (лейбл): MCA Victor/GRP Records
Номер по каталогу: MVCR-48 (GRD-9603)
Аудиокодек: FLAC (*.flac)
Тип рипа: tracks+.cue
Битрейт аудио: lossless
Продолжительность: 54:57
Источник (релизер): net
Наличие сканов в содержимом раздачи: да
Треклист:
01. Through The Test Of Time (5:08)
02. Too Soon To Know (4:23)
03. In My Life (4:04)
04. Love Is Gonna Getcha (5:04)
05. Ooh-Whee (The Carnival) (5:41)
06. Believe The Children (5:36)
07. Good In Love (4:38)
08. Wait For Me (5:26)
09. First Time Love (5:31)
10. In My Dream (5:09)
11. The Girl Who Used To Be Me (4:17)
 
 
Лог создания рипа
Exact Audio Copy V1.0 beta 3 from 29. August 2011
EAC extraction logfile from 18. June 2014, 15:48
Patti Austin / Love Is Gonna Getcha
Used drive : Optiarc DVD RW AD-5240S Adapter: 1 ID: 1
Read mode : Secure
Utilize accurate stream : Yes
Defeat audio cache : Yes
Make use of C2 pointers : No
Read offset correction : 48
Overread into Lead-In and Lead-Out : No
Fill up missing offset samples with silence : Yes
Delete leading and trailing silent blocks : No
Null samples used in CRC calculations : Yes
Used interface : Installed external ASPI interface
Gap handling : Appended to previous track
Used output format : User Defined Encoder
Selected bitrate : 896 kBit/s
Quality : High
Add ID3 tag : No
Command line compressor : C:\Program Files\Exact Audio Copy\FLAC\FLAC.EXE
Additional command line options : -6 -V -T "ARTIST=%artist%" -T "TITLE=%title%" -T "ALBUM=%albumtitle%" -T "DATE=%year%" -T "TRACKNUMBER=%tracknr%" -T "GENRE=%genre%" -T "COMMENT=%comment%" -T "BAND=%albuminterpret%" -T "ALBUMARTIST=%albuminterpret%" -T "COMPOSER=%composer%" %haslyrics%--tag-from-file=LYRICS="%lyricsfile%"%haslyrics% -T "DISCNUMBER=%cdnumber%" -T "TOTALDISCS=%totalcds%" -T "TOTALTRACKS=%numtracks%" %hascover%--picture="%coverfile%"%hascover% %source% -o %dest%
TOC of the extracted CD
Track | Start | Length | Start sector | End sector
---------------------------------------------------------
1 | 0:00.37 | 5:07.48 | 37 | 23109
2 | 5:08.10 | 4:23.02 | 23110 | 42836
3 | 9:31.12 | 4:04.05 | 42837 | 61141
4 | 13:35.17 | 5:03.60 | 61142 | 83926
5 | 18:39.02 | 5:40.53 | 83927 | 109479
6 | 24:19.55 | 5:36.30 | 109480 | 134709
7 | 29:56.10 | 4:38.20 | 134710 | 155579
8 | 34:34.30 | 5:26.07 | 155580 | 180036
9 | 40:00.37 | 5:30.58 | 180037 | 204844
10 | 45:31.20 | 5:08.45 | 204845 | 227989
11 | 50:39.65 | 4:17.30 | 227990 | 247294
Track 1
Filename D:\loosless\Patti Austin 1990 Love Is Gonna Getcha {MVCR-48} [FLAC]\01 Through the Test of Time.wav
Pre-gap length 0:00:02.37
Peak level 99.9 %
Extraction speed 2.6 X
Track quality 100.0 %
Test CRC F2FC8AFF
Copy CRC F2FC8AFF
Accurately ripped (confidence 2) [2B3FA329] (AR v2)
Copy OK
Track 2
Filename D:\loosless\Patti Austin 1990 Love Is Gonna Getcha {MVCR-48} [FLAC]\02 Too Soon To Know.wav
Pre-gap length 0:00:01.15
Peak level 99.8 %
Extraction speed 2.8 X
Track quality 100.0 %
Test CRC 36F90BB4
Copy CRC 36F90BB4
Accurately ripped (confidence 2) [D2A85B77] (AR v2)
Copy OK
Track 3
Filename D:\loosless\Patti Austin 1990 Love Is Gonna Getcha {MVCR-48} [FLAC]\03 In My Life.wav
Pre-gap length 0:00:00.70
Peak level 98.4 %
Extraction speed 3.1 X
Track quality 100.0 %
Test CRC 29BBBD91
Copy CRC 29BBBD91
Accurately ripped (confidence 2) [92155920] (AR v2)
Copy OK
Track 4
Filename D:\loosless\Patti Austin 1990 Love Is Gonna Getcha {MVCR-48} [FLAC]\04 Love Is Gonna Getcha.wav
Pre-gap length 0:00:00.36
Peak level 97.1 %
Extraction speed 3.0 X
Track quality 99.9 %
Test CRC A1132E38
Copy CRC A1132E38
Accurately ripped (confidence 2) [A5E6A30D] (AR v2)
Copy OK
Track 5
Filename D:\loosless\Patti Austin 1990 Love Is Gonna Getcha {MVCR-48} [FLAC]\05 Ooh-Whee (The Carnival).wav
Peak level 100.0 %
Extraction speed 3.7 X
Track quality 100.0 %
Test CRC BE424230
Copy CRC BE424230
Accurately ripped (confidence 2) [98CB7A71] (AR v2)
Copy OK
Track 6
Filename D:\loosless\Patti Austin 1990 Love Is Gonna Getcha {MVCR-48} [FLAC]\06 Believe the Children.wav
Pre-gap length 0:00:00.45
Peak level 99.3 %
Extraction speed 3.9 X
Track quality 100.0 %
Test CRC 0DA97B86
Copy CRC 0DA97B86
Accurately ripped (confidence 2) [BF9E10AF] (AR v2)
Copy OK
Track 7
Filename D:\loosless\Patti Austin 1990 Love Is Gonna Getcha {MVCR-48} [FLAC]\07 Good In Love.wav
Pre-gap length 0:00:01.26
Peak level 98.9 %
Extraction speed 4.1 X
Track quality 100.0 %
Test CRC 19377ED1
Copy CRC 19377ED1
Accurately ripped (confidence 2) [96DD71EF] (AR v2)
Copy OK
Track 8
Filename D:\loosless\Patti Austin 1990 Love Is Gonna Getcha {MVCR-48} [FLAC]\08 Wait For Me.wav
Peak level 100.0 %
Extraction speed 4.4 X
Track quality 100.0 %
Test CRC 2A3221B5
Copy CRC 2A3221B5
Accurately ripped (confidence 2) [80195388] (AR v2)
Copy OK
Track 9
Filename D:\loosless\Patti Austin 1990 Love Is Gonna Getcha {MVCR-48} [FLAC]\09 First Time Love.wav
Pre-gap length 0:00:00.26
Peak level 99.6 %
Extraction speed 4.6 X
Track quality 100.0 %
Test CRC FEE07BCC
Copy CRC FEE07BCC
Accurately ripped (confidence 2) [90A6D739] (AR v2)
Copy OK
Track 10
Filename D:\loosless\Patti Austin 1990 Love Is Gonna Getcha {MVCR-48} [FLAC]\10 In My Dream.wav
Pre-gap length 0:00:00.15
Peak level 99.1 %
Extraction speed 4.7 X
Track quality 100.0 %
Test CRC BDE494ED
Copy CRC BDE494ED
Accurately ripped (confidence 2) [D8494EC0] (AR v2)
Copy OK
Track 11
Filename D:\loosless\Patti Austin 1990 Love Is Gonna Getcha {MVCR-48} [FLAC]\11 The Girl Who Used To Be Me.wav
Pre-gap length 0:00:01.13
Peak level 100.0 %
Extraction speed 4.8 X
Track quality 100.0 %
Test CRC 326C13D0
Copy CRC 326C13D0
Accurately ripped (confidence 2) [492294E0] (AR v2)
Copy OK
All tracks accurately ripped
No errors occurred
End of status report
==== Log checksum EFDFC00F794A789F8DCB5D796D9B661BF7A4B373D74B07E923EF7888691F96C7 ====
 
Содержание индексной карты (.CUE)
REM GENRE Jazz
REM DATE 1990
REM DISCID 7D0CE10B
REM COMMENT "ExactAudioCopy v1.0b3"
PERFORMER "Patti Austin"
TITLE "Love Is Gonna Getcha"
FILE "01 Through The Test Of Time.wav" WAVE
TRACK 01 AUDIO
TITLE "Through The Test Of Time"
PERFORMER "Patti Austin"
PREGAP 00:00:37
INDEX 01 00:00:00
TRACK 02 AUDIO
TITLE "Too Soon To Know"
PERFORMER "Patti Austin"
INDEX 00 05:06:33
FILE "02 Too Soon To Know.wav" WAVE
INDEX 01 00:00:00
TRACK 03 AUDIO
TITLE "In My Life"
PERFORMER "Patti Austin"
INDEX 00 04:22:07
FILE "03 In My Life.wav" WAVE
INDEX 01 00:00:00
TRACK 04 AUDIO
TITLE "Love Is Gonna Getcha"
PERFORMER "Patti Austin"
INDEX 00 04:03:44
FILE "04 Love Is Gonna Getcha.wav" WAVE
INDEX 01 00:00:00
FILE "05 Ooh-Whee (The Carnival).wav" WAVE
TRACK 05 AUDIO
TITLE "Ooh-Whee (The Carnival)"
PERFORMER "Patti Austin"
INDEX 01 00:00:00
TRACK 06 AUDIO
TITLE "Believe The Children"
PERFORMER "Patti Austin"
INDEX 00 05:40:08
FILE "06 Believe The Children.wav" WAVE
INDEX 01 00:00:00
TRACK 07 AUDIO
TITLE "Good In Love"
PERFORMER "Patti Austin"
INDEX 00 05:35:04
FILE "07 Good In Love.wav" WAVE
INDEX 01 00:00:00
FILE "08 Wait For Me.wav" WAVE
TRACK 08 AUDIO
TITLE "Wait For Me"
PERFORMER "Patti Austin"
INDEX 01 00:00:00
TRACK 09 AUDIO
TITLE "First Time Love"
PERFORMER "Patti Austin"
INDEX 00 05:25:56
FILE "09 First Time Love.wav" WAVE
INDEX 01 00:00:00
TRACK 10 AUDIO
TITLE "In My Dream"
PERFORMER "Patti Austin"
INDEX 00 05:30:43
FILE "10 In My Dream.wav" WAVE
INDEX 01 00:00:00
TRACK 11 AUDIO
TITLE "The Girl Who Used To Be Me"
PERFORMER "Patti Austin"
INDEX 00 05:07:32
FILE "11 The Girl Who Used To Be Me.wav" WAVE
INDEX 01 00:00:00
Приватный:
Нет (DHT включён)
Размер:
357.96 Мб (375,343,612 байт) » файлов: 21
Участники:
0 раздают, 0 качают (0 участников всего)
Внешние участники:
2 раздают, 1 качают (3 участников всего) [ Обновить ]
Есть вопросы - пишите личное сообщение пользователю M0p94ok.
13:41
101
Нет комментариев. Ваш будет первым!