Поиск

(Soul, R&B) [CD] Patti & LaBelle - Lady Marmalade: The Best Of Patti & LaBelle - 1995, FLAC (image+.cue), lossless

(Soul, R&B) [CD] Patti & LaBelle - Lady Marmalade: The Best Of Patti & LaBelle - 1995, FLAC (image+.cue), lossless
Треклист:
Patti & LaBelle - Lady Marmalade: The Best Of Patti & LaBelle Жанр: Soul, R&B
Носитель: CD
Страна-производитель диска (релиза): US
Год издания: 1995
Издатель (лейбл): Legacy/Epic
Номер по каталогу: EK 66339
Аудиокодек: FLAC (*.flac)
Тип рипа: image+.cue
Битрейт аудио: lossless
Продолжительность: 75:07
Rip by Аннушка
Наличие сканов в содержимом раздачи: да
Треклист:
01. Lady Marmalade (3:57)
02. What Can I Do For You? (4:01)
03. Are You Lonely? (3:12)
04. You Turn Me On (4:37)
05. Messin' With My Mind (4:36)
06. Take The Night Off (3:38)
07. Get You Somebody New (6:09)
08. Isn't It A Shame (7:56)
09. Joy To Have Your Love (5:45)
10. I Think About You (4:31)
11. You Are My Friend (4:36)
12. Teach Me Tonight (Me Gusta Tu Baile) (5:22)
13. Quiet Time (5:06)
14. It's Altright With Me (4:16)
15. Don't Make Your Angel Cry (3:18)
16. Come What May (4:06)
 
 
Лог создания рипа
Exact Audio Copy V1.1 from 23. June 2015
EAC extraction logfile from 1. April 2016, 16:37
Patti And LaBelle / Lady Marmalade - The Best Of Patti And LaBelle
Used drive : HL-DT-STDVDRAM GH24NSC0 Adapter: 1 ID: 0
Read mode : Secure
Utilize accurate stream : Yes
Defeat audio cache : Yes
Make use of C2 pointers : No
Read offset correction : 6
Overread into Lead-In and Lead-Out : No
Fill up missing offset samples with silence : Yes
Delete leading and trailing silent blocks : No
Null samples used in CRC calculations : Yes
Used interface : Native Win32 interface for Win NT & 2000
Used output format : Internal WAV Routines
Sample format : 44.100 Hz; 16 Bit; Stereo
TOC of the extracted CD
Track | Start | Length | Start sector | End sector
---------------------------------------------------------
1 | 0:00.00 | 3:56.45 | 0 | 17744
2 | 3:56.45 | 4:01.27 | 17745 | 35846
3 | 7:57.72 | 3:12.23 | 35847 | 50269
4 | 11:10.20 | 4:37.30 | 50270 | 71074
5 | 15:47.50 | 4:35.62 | 71075 | 91761
6 | 20:23.37 | 3:38.20 | 91762 | 108131
7 | 24:01.57 | 6:08.60 | 108132 | 135791
8 | 30:10.42 | 7:56.20 | 135792 | 171511
9 | 38:06.62 | 5:44.40 | 171512 | 197351
10 | 43:51.27 | 4:30.50 | 197352 | 217651
11 | 48:22.02 | 4:36.00 | 217652 | 238351
12 | 52:58.02 | 5:22.18 | 238352 | 262519
13 | 58:20.20 | 5:06.25 | 262520 | 285494
14 | 63:26.45 | 4:16.35 | 285495 | 304729
15 | 67:43.05 | 3:17.42 | 304730 | 319546
16 | 71:00.47 | 4:06.33 | 319547 | 338029
Range status and errors
Selected range
Filename C:\Music CD\Patti And LaBelle - Lady Marmalade - The Best Of Patti And LaBelle.wav
Peak level 100.0 %
Extraction speed 2.1 X
Range quality 100.0 %
Test CRC 99105A18
Copy CRC 99105A18
Copy OK
No errors occurred
AccurateRip summary
Track 1 accurately ripped (confidence 2) [CF507E96] (AR v2)
Track 2 accurately ripped (confidence 2) [A819CD53] (AR v2)
Track 3 accurately ripped (confidence 2) [C5891349] (AR v2)
Track 4 accurately ripped (confidence 2) [93BD5560] (AR v2)
Track 5 accurately ripped (confidence 2) [01B01567] (AR v2)
Track 6 accurately ripped (confidence 2) [241D901A] (AR v2)
Track 7 accurately ripped (confidence 2) [3441E822] (AR v2)
Track 8 accurately ripped (confidence 2) [D150A434] (AR v2)
Track 9 accurately ripped (confidence 2) [1986DEB1] (AR v2)
Track 10 accurately ripped (confidence 2) [1246C865] (AR v2)
Track 11 accurately ripped (confidence 2) [65EF0077] (AR v2)
Track 12 accurately ripped (confidence 2) [AE0E978A] (AR v2)
Track 13 accurately ripped (confidence 2) [855265F0] (AR v2)
Track 14 accurately ripped (confidence 2) [EE98843B] (AR v2)
Track 15 accurately ripped (confidence 2) [39FB49F7] (AR v2)
Track 16 accurately ripped (confidence 2) [EFF9FD3E] (AR v2)
All tracks accurately ripped
End of status report
---- CUETools DB Plugin V2.1.6
[CTDB TOCID: VpzCbBn.0YPjKMUKLt36B3uZrJw-] found
Submit result: VpzCbBn.0YPjKMUKLt36B3uZrJw- has been confirmed
Track | CTDB Status
1 | (8/8) Accurately ripped
2 | (8/8) Accurately ripped
3 | (8/8) Accurately ripped
4 | (8/8) Accurately ripped
5 | (8/8) Accurately ripped
6 | (8/8) Accurately ripped
7 | (8/8) Accurately ripped
8 | (8/8) Accurately ripped
9 | (8/8) Accurately ripped
10 | (8/8) Accurately ripped
11 | (8/8) Accurately ripped
12 | (8/8) Accurately ripped
13 | (8/8) Accurately ripped
14 | (8/8) Accurately ripped
15 | (8/8) Accurately ripped
16 | (8/8) Accurately ripped
==== Log checksum 2A4E02B12B513860BF93E08B61D0082188F7AEF692AA2616AF88D14A884ABAA9 ====
 
Содержание индексной карты (.CUE)
REM GENRE Soul, R&B
REM DATE 1995
REM DISCID E1119B10
REM COMMENT "ExactAudioCopy v1.1"
PERFORMER "Patti & LaBelle"
TITLE "Lady Marmalade: The Best Of Patti And LaBelle"
FILE "Patti And LaBelle - Lady Marmalade - The Best Of Patti And LaBelle.flac" WAVE
TRACK 01 AUDIO
TITLE "Lady Marmalade"
PERFORMER "Patti & LaBelle"
INDEX 01 00:00:00
TRACK 02 AUDIO
TITLE "What Can I Do For You?"
PERFORMER "Patti & LaBelle"
INDEX 00 03:56:42
INDEX 01 03:56:45
TRACK 03 AUDIO
TITLE "Are You Lonely?"
PERFORMER "Patti & LaBelle"
INDEX 00 07:57:70
INDEX 01 07:57:72
TRACK 04 AUDIO
TITLE "You Turn Me On"
PERFORMER "Patti & LaBelle"
INDEX 00 11:10:00
INDEX 01 11:10:20
TRACK 05 AUDIO
TITLE "Messin' With My Mind"
PERFORMER "Patti & LaBelle"
INDEX 00 15:47:42
INDEX 01 15:47:50
TRACK 06 AUDIO
TITLE "Take The Night Off"
PERFORMER "Patti & LaBelle"
INDEX 00 20:23:32
INDEX 01 20:23:37
TRACK 07 AUDIO
TITLE "Get You Somebody New"
PERFORMER "Patti & LaBelle"
INDEX 00 24:01:50
INDEX 01 24:01:57
TRACK 08 AUDIO
TITLE "Isn't It A Shame"
PERFORMER "Patti & LaBelle"
INDEX 00 30:10:25
INDEX 01 30:10:42
TRACK 09 AUDIO
TITLE "Joy To Have Your Love"
PERFORMER "Patti & LaBelle"
INDEX 01 38:06:62
TRACK 10 AUDIO
TITLE "I Think About You"
PERFORMER "Patti & LaBelle"
INDEX 00 43:51:17
INDEX 01 43:51:27
TRACK 11 AUDIO
TITLE "You Are My Friend"
PERFORMER "Patti & LaBelle"
INDEX 00 48:21:72
INDEX 01 48:22:02
TRACK 12 AUDIO
TITLE "Teach Me Tonight (Me Gusta Tu Baile)"
PERFORMER "Patti & LaBelle"
INDEX 00 52:57:62
INDEX 01 52:58:02
TRACK 13 AUDIO
TITLE "Quiet Time"
PERFORMER "Patti & LaBelle"
INDEX 00 58:20:05
INDEX 01 58:20:20
TRACK 14 AUDIO
TITLE "It's Altright With Me"
PERFORMER "Patti & LaBelle"
INDEX 01 63:26:45
TRACK 15 AUDIO
TITLE "Don't Make Your Angel Cry"
PERFORMER "Patti & LaBelle"
INDEX 00 67:42:65
INDEX 01 67:43:05
TRACK 16 AUDIO
TITLE "Come What May"
PERFORMER "Patti & LaBelle"
INDEX 00 71:00:30
INDEX 01 71:00:47
 
CUETools log
[CUETools log; Date: 10.07.2016 22:56:50; Version: 2.0.9]
[CTDB TOCID: VpzCbBn.0YPjKMUKLt36B3uZrJw-] found.
[ CTDBID ] Status
[e400a23c] (11/11) Accurately ripped
[AccurateRip ID: 002b6c75-02118d69-e1119b10] found.
Track [ CRC ] Status
01 [517eb4f7] (07/17) Accurately ripped
02 [6a16d815] (07/17) Accurately ripped
03 [525eb576] (06/16) Accurately ripped
04 [fa327268] (06/16) Accurately ripped
05 [bd324f99] (06/16) Accurately ripped
06 [14202488] (06/15) Accurately ripped
07 [a55a0a65] (06/16) Accurately ripped
08 [9f96d5d3] (06/16) Accurately ripped
09 [11dfdda1] (06/16) Accurately ripped
10 [fe9d86c2] (06/16) Accurately ripped
11 [9814f935] (06/16) Accurately ripped
12 [4e48e7c4] (06/16) Accurately ripped
13 [bc29730b] (06/16) Accurately ripped
14 [d5a8a783] (06/16) Accurately ripped
15 [68e91101] (06/16) Accurately ripped
16 [72d59c98] (06/16) Accurately ripped
Offsetted by -202:
01 [1387170d] (03/17) Accurately ripped
02 [26940d93] (03/17) Accurately ripped
03 [deaa20b2] (03/16) Accurately ripped
04 [f18c0c18] (03/16) Accurately ripped
05 [e31d8c69] (03/16) Accurately ripped
06 [3aa91984] (02/15) Accurately ripped
07 [3c494e81] (03/16) Accurately ripped
08 [d320a80d] (03/16) Accurately ripped
09 [fdcd1e23] (03/16) Accurately ripped
10 [c74e4960] (03/16) Accurately ripped
11 [e0c05b0d] (03/16) Accurately ripped
12 [c92ba5c2] (03/16) Accurately ripped
13 [f8c5a8f9] (03/16) Accurately ripped
14 [c522df65] (03/16) Accurately ripped
15 [4646827b] (03/16) Accurately ripped
16 [319b31ba] (03/16) Accurately ripped
Offsetted by -710:
01 [4f228251] (03/17) No match but offset
02 [72a8ea47] (03/17) No match but offset
03 [11dc639a] (03/16) No match but offset
04 [a919bc38] (03/16) No match but offset
05 [e228b349] (03/16) No match but offset
06 [1f5f4eec] (02/15) No match but offset
07 [8cc682a9] (03/16) No match but offset
08 [690420a9] (03/16) No match but offset
09 [e221c56f] (03/16) No match but offset
10 [0c0d58d4] (03/16) No match but offset
11 [5823511d] (03/16) No match but offset
12 [d5a7c576] (03/16) No match but offset
13 [fbe41e47] (03/16) No match but offset
14 [e28e06bf] (03/16) No match but offset
15 [1ccc1e97] (03/16) No match but offset
16 [34daa8c6] (03/16) No match but offset
Track Peak [ CRC32 ] [W/O NULL] [ LOG ]
-- 100,0 [99105A18] [31F41CA4] CRC32
01 100,0 [F68AA09A] [DC46C3AE]
02 100,0 [DBAA1D13] [ECD9D951]
03 100,0 [93129BE1] [B92D1354]
04 89,8 [74E1F313] [3CA05952]
05 100,0 [BB57D5F3] [BC3CF1D3]
06 91,6 [D2E56D4C] [E8304913]
07 94,3 [5AEEF7DB] [BCDFF9E8]
08 100,0 [9B7F01F0] [E65B39BA]
09 100,0 [23C05477] [A51FB9F6]
10 100,0 [911B399E] [0E563DFF]
11 81,7 [E33A54C4] [E9A87178]
12 80,9 [893737B0] [34268761]
13 70,6 [5B1BB8B3] [5C57E34E]
14 100,0 [C47E0494] [BB96396D]
15 77,8 [8D0B5F67] [B5581907]
16 72,8 [237AAE00] [96F71ABB]
Приватный:
Нет (DHT включён)
Размер:
540.24 Мб (566,486,663 байт) » файлов: 12
Участники:
0 раздают, 0 качают (0 участников всего)
Внешние участники:
2 раздают, 1 качают (3 участников всего) [ Обновить ]
Есть вопросы - пишите личное сообщение пользователю M0p94ok.
11:08
89
Нет комментариев. Ваш будет первым!