Поиск

(Fusion, Jazz-Funk) [CD] Arista All Stars (w/ Warren Bernhardt, Michael Brecker, Randy Brecker, Larry Coryell) - Blue Montreux II - 1978 (2007 Japan Edition), FLAC (tracks+.cue), lossless

(Fusion, Jazz-Funk) [CD] Arista All Stars (w/ Warren Bernhardt, Michael Brecker, Randy Brecker, Larry Coryell) - Blue Montreux II - 1978 (2007 Japan Edition), FLAC (tracks+.cue), lossless
Треклист:
Arista All Stars - Blue Montreux II
Жанр: Fusion, Jazz-Funk
Носитель: CD
Страна-производитель диска (релиза): Япония
Год издания: 2007
Издатель (лейбл): Arista/BMG
Номер по каталогу: BVCJ-37577
Страна исполнителя (группы): США
Аудиокодек: FLAC (*.flac)
Тип рипа: tracks+.cue
Битрейт аудио: lossless
Продолжительность: 39:17
Источник (релизер): ruskaval
Наличие сканов в содержимом раздачи: да
Треклист:
01. A Funky Waltz (Mouzon) - 6:03
02. Candles (Khan) - 6:08
03. Uptowned (Brecker) - 6:39
04. Love Play (Maineiri) - 10:55
05. Cloud Motion (Khan) - 9:32
Состав:
Warren Bernhardt - keyboards (#1,2,4,5), acoustic piano (#3), mini-moog (#4)
Michael Brecker - tenor saxophone (#1,3,5), soprano saxophone (#2)
Randy Brecker - trumpet (#1,5)
Larry Coryell (#1), Steve Khan (#1,2,4,5) - electric guitar
Steve Jordan - drums (#1-5)
Tony Levin - electric bass (#4,5), electric stick (#1,2)
Eddie Gomez - acoustic bass (#3)
Mike Mainieri - electric vibes (#2-5), synthi-vibes (#4), percussion (#2,5)
Recorded live at Montreux Jazz Festival on July 21-22, 1978.
 
Лог создания рипа
Exact Audio Copy V1.1 from 23. June 2015
EAC extraction logfile from 15. May 2016, 20:36
Arista All Stars / Blue Montreux II
Used drive : MATSHITADVD+-RW SW830 Adapter: 1 ID: 0
Read mode : Secure
Utilize accurate stream : Yes
Defeat audio cache : Yes
Make use of C2 pointers : No
Read offset correction : 6
Overread into Lead-In and Lead-Out : No
Fill up missing offset samples with silence : Yes
Delete leading and trailing silent blocks : No
Null samples used in CRC calculations : Yes
Used interface : Native Win32 interface for Win NT & 2000
Gap handling : Appended to previous track
Used output format : User Defined Encoder
Selected bitrate : 896 kBit/s
Quality : High
Add ID3 tag : No
Command line compressor : C:\Program Files (x86)\Exact Audio Copy\Flac\flac.exe
Additional command line options : -8 -V -T "ARTIST=%artist%" -T "TITLE=%title%" -T "ALBUM=%albumtitle%" -T "DATE=%year%" -T "TRACKNUMBER=%tracknr%" -T "TOTALTRACKS=%numtracks%" -T "GENRE=%genre%" -T "ALBUMARTIST=%albumartist%" -T "ALBUM ARTIST=%albumartist%" -T "COMMENT=EAC Secure Mode, Test & Copy, AccurateRip, FLAC -8" %source%
TOC of the extracted CD
Track | Start | Length | Start sector | End sector
---------------------------------------------------------
1 | 0:00.00 | 6:03.16 | 0 | 27240
2 | 6:03.16 | 6:07.56 | 27241 | 54821
3 | 12:10.72 | 6:39.18 | 54822 | 84764
4 | 18:50.15 | 10:54.41 | 84765 | 133855
5 | 29:44.56 | 9:31.67 | 133856 | 176747
Track 1
Filename G:\New Rips\Arista All Stars - Blue Montreux II (2007) [FLAC]\01 - A Funky Waltz.wav
Pre-gap length 0:00:02.00
Peak level 100.0 %
Extraction speed 4.0 X
Track quality 99.9 %
Test CRC D766A392
Copy CRC D766A392
Accurately ripped (confidence 1) [B62AE207] (AR v1)
Copy OK
Track 2
Filename G:\New Rips\Arista All Stars - Blue Montreux II (2007) [FLAC]\02 - Candles.wav
Pre-gap length 0:00:01.59
Peak level 100.0 %
Extraction speed 5.2 X
Track quality 100.0 %
Test CRC 58D62B04
Copy CRC 58D62B04
Accurately ripped (confidence 1) [7F3BF25C] (AR v1)
Copy OK
Track 3
Filename G:\New Rips\Arista All Stars - Blue Montreux II (2007) [FLAC]\03 - Uptowned.wav
Pre-gap length 0:00:02.21
Peak level 100.0 %
Extraction speed 5.9 X
Track quality 100.0 %
Test CRC 8872AA1C
Copy CRC 8872AA1C
Accurately ripped (confidence 1) [04677797] (AR v1)
Copy OK
Track 4
Filename G:\New Rips\Arista All Stars - Blue Montreux II (2007) [FLAC]\04 - Love Play.wav
Pre-gap length 0:00:02.45
Peak level 100.0 %
Extraction speed 6.9 X
Track quality 100.0 %
Test CRC BC8C320A
Copy CRC BC8C320A
Accurately ripped (confidence 1) [3610E128] (AR v1)
Copy OK
Track 5
Filename G:\New Rips\Arista All Stars - Blue Montreux II (2007) [FLAC]\05 - Cloud Motion.wav
Pre-gap length 0:00:02.34
Peak level 100.0 %
Extraction speed 7.6 X
Track quality 100.0 %
Test CRC 1611EB2E
Copy CRC 1611EB2E
Accurately ripped (confidence 1) [9E6F12E9] (AR v1)
Copy OK
All tracks accurately ripped
No errors occurred
End of status report
---- CUETools DB Plugin V2.1.6
[CTDB TOCID: Zj.SQF5A7J8Tl.nj7XZPO9EmYnQ-] found
Submit result: Zj.SQF5A7J8Tl.nj7XZPO9EmYnQ- has been confirmed
Track | CTDB Status
1 | (1/1) Accurately ripped
2 | (1/1) Accurately ripped
3 | (1/1) Accurately ripped
4 | (1/1) Accurately ripped
5 | (1/1) Accurately ripped
==== Log checksum BBF6D4502F92B4D8F47BFFA7248F867AE841967A9630195ECD3AB292C7D7D119 ====
 
Содержание индексной карты (.CUE)
REM GENRE Jazz
REM DATE 1978
REM DISCID 39093405
REM COMMENT "ExactAudioCopy v1.1"
PERFORMER "Arista All Stars"
TITLE "Blue Montreux II"
FILE "01 - A Funky Waltz.wav" WAVE
TRACK 01 AUDIO
TITLE "A Funky Waltz"
PERFORMER "Arista All Stars"
INDEX 01 00:00:00
TRACK 02 AUDIO
TITLE "Candles"
PERFORMER "Arista All Stars"
INDEX 00 06:01:32
FILE "02 - Candles.wav" WAVE
INDEX 01 00:00:00
TRACK 03 AUDIO
TITLE "Uptowned"
PERFORMER "Arista All Stars"
INDEX 00 06:05:35
FILE "03 - Uptowned.wav" WAVE
INDEX 01 00:00:00
TRACK 04 AUDIO
TITLE "Love Play"
PERFORMER "Arista All Stars"
INDEX 00 06:36:48
FILE "04 - Love Play.wav" WAVE
INDEX 01 00:00:00
TRACK 05 AUDIO
TITLE "Cloud Motion"
PERFORMER "Arista All Stars"
INDEX 00 10:52:07
FILE "05 - Cloud Motion.wav" WAVE
INDEX 01 00:00:00
 
Отчет CUETools
[CUETools log; Date: 06.07.2016 20:32:22; Version: 2.1.5]
[CTDB TOCID: Zj.SQF5A7J8Tl.nj7XZPO9EmYnQ-] found.
Track | CTDB Status
1 | (2/2) Accurately ripped
2 | (2/2) Accurately ripped
3 | (2/2) Accurately ripped
4 | (2/2) Accurately ripped
5 | (2/2) Accurately ripped
[AccurateRip ID: 000748f8-0022e8a1-39093405] found.
Track [ CRC | V2 ] Status
01 [b62ae207|4f7640c9] (1+0/1) Accurately ripped
02 [7f3bf25c|cbd49742] (1+0/1) Accurately ripped
03 [04677797|671ef5e4] (1+0/1) Accurately ripped
04 [3610e128|bdc06b14] (1+0/1) Accurately ripped
05 [9e6f12e9|b7769275] (1+0/1) Accurately ripped
Track Peak [ CRC32 ] [W/O NULL] [ LOG ]
-- 100,0 [4585FD52] [633CA7B8]
01 100,0 [D766A392] [692B93EE] CRC32
02 100,0 [58D62B04] [06C05716] CRC32
03 100,0 [8872AA1C] [CA48AF88] CRC32
04 100,0 [BC8C320A] [A783694D] CRC32
05 100,0 [1611EB2E] [94352F21] CRC32
Приватный:
Нет (DHT включён)
Размер:
267.40 Мб (280,391,884 байт) » файлов: 18
Участники:
0 раздают, 0 качают (0 участников всего)
Внешние участники:
2 раздают, 1 качают (3 участников всего) [ Обновить ]
Есть вопросы - пишите личное сообщение пользователю M0p94ok.
11:08
50
Нет комментариев. Ваш будет первым!