Поиск

(Jazz-Funk, Jazz-Rock, Brass Band, R&B) [CD] No BS! Brass Band - Alive in Richmond - 2009, FLAC (tracks+.cue), lossless

(Jazz-Funk, Jazz-Rock, Brass Band, R&B) [CD] No BS! Brass Band - Alive in Richmond - 2009, FLAC (tracks+.cue), lossless
Треклист:
No BS! Brass Band / Alive in Richmond
Жанр: Jazz-Funk, Jazz-Rock, Brass Band, R&B
Носитель: CD
Год издания: 2009
Издатель (лейбл): Self-Released
Аудиокодек: FLAC (*.flac)
Тип рипа: tracks+.cue
Битрейт аудио: lossless
Продолжительность: 01:11:51
Источник (релизер): saitoh
Наличие сканов в содержимом раздачи: нет
Треклист:
1.Landmines 03:20
2.Lando 04:01
3.Ain't Even Gonna Call Ya 04:55
4.Juniper 05:25
5.Jackpot 05:07
6.Bitch is Beast 06:41
7.HH 04:27
8.Tom Sawyer 04:24
9.Cinnamon Girl 05:18
10.Duel pt.1 01:55
11.Iron Palm 02:33
12.Duel pt.2 01:59
13.The Lizard 05:53
14.Duel pt.3 01:06
15.The Centipede, Toad=Mantis Style, The Student 06:27
16.Ain't Even Gonna Call Ya ft. Doc Sav 04:56
17.Boss Battle Dance (Remix) ft. SnowPanda 04:47
Tiny Desk Concert
 
Лог создания рипа
X Lossless Decoder version 20110417 (131.0)
XLD extraction logfile from 2011-04-20 00:02:21 -0400
No BS Brass Band / Alive in Richmond
Used drive : HL-DT-ST DVDRW GS21N (revision SA18)
Ripper mode : CDParanoia III 10.2
Disable audio cache : OK for the drive with a cache less than 2750KiB
Make use of C2 pointers : NO
Read offset correction : 667
Max retry count : 100
Gap status : Analyzed, Appended
TOC of the extracted CD
Track | Start | Length | Start sector | End sector
---------------------------------------------------------
1 | 00:00:00 | 03:20:69 | 0 | 15068
2 | 03:20:69 | 04:01:33 | 15069 | 33176
3 | 07:22:27 | 04:53:46 | 33177 | 55197
4 | 12:15:73 | 05:21:41 | 55198 | 79313
5 | 17:37:39 | 05:12:57 | 79314 | 102770
6 | 22:50:21 | 06:39:14 | 102771 | 132709
7 | 29:29:35 | 04:29:24 | 132710 | 152908
8 | 33:58:59 | 04:23:06 | 152909 | 172639
9 | 38:21:65 | 05:15:33 | 172640 | 196297
10 | 43:37:23 | 01:57:59 | 196298 | 205131
11 | 45:35:07 | 02:31:60 | 205132 | 216516
12 | 48:06:67 | 02:00:22 | 216517 | 225538
13 | 50:07:14 | 05:49:35 | 225539 | 251748
14 | 55:56:49 | 01:08:01 | 251749 | 256849
15 | 57:04:50 | 06:26:09 | 256850 | 285808
16 | 63:30:59 | 08:20:08 | 285809 | 323316
AccurateRip Summary
Disc not found in AccurateRip DB.
All Tracks
Album gain : -9.40 dB
Peak : 0.966156
Statistics
Read error : 0
Skipped (treated as error) : 0
Edge jitter error (maybe fixed) : 0
Atom jitter error (maybe fixed) : 0
Drift error (maybe fixed) : 0
Dropped bytes error (maybe fixed) : 0
Duplicated bytes error (maybe fixed) : 0
Track 01
Filename : /Volumes/HAL/whatcd/No BS Brass Band - Alive in Richmond (2009) [FLAC]/01 - Landmines.flac
Pre-gap length : 00:02:00
Track gain : -9.83 dB
Peak : 0.966156
CRC32 hash (test run) : 37619B84
CRC32 hash : 37619B84
CRC32 hash (skip zero) : D808D699
AccurateRip signature : C879BF7F
->Track not present in AccurateRip database.
Statistics
Read error : 0
Skipped (treated as error) : 0
Edge jitter error (maybe fixed) : 0
Atom jitter error (maybe fixed) : 0
Drift error (maybe fixed) : 0
Dropped bytes error (maybe fixed) : 0
Duplicated bytes error (maybe fixed) : 0
Inconsistency in error sectors : 0
Track 02
Filename : /Volumes/HAL/whatcd/No BS Brass Band - Alive in Richmond (2009) [FLAC]/02 - Lando.flac
Track gain : -9.19 dB
Peak : 0.966156
CRC32 hash (test run) : 40A35D3D
CRC32 hash : 40A35D3D
CRC32 hash (skip zero) : 606462E8
AccurateRip signature : 08CB5A30
->Track not present in AccurateRip database.
Statistics
Read error : 0
Skipped (treated as error) : 0
Edge jitter error (maybe fixed) : 0
Atom jitter error (maybe fixed) : 0
Drift error (maybe fixed) : 0
Dropped bytes error (maybe fixed) : 0
Duplicated bytes error (maybe fixed) : 0
Inconsistency in error sectors : 0
Track 03
Filename : /Volumes/HAL/whatcd/No BS Brass Band - Alive in Richmond (2009) [FLAC]/03 - Ain't Even Gonna Call Ya.flac
Track gain : -9.23 dB
Peak : 0.966156
CRC32 hash (test run) : 25FB7B08
CRC32 hash : 25FB7B08
CRC32 hash (skip zero) : 3965AC28
AccurateRip signature : 9D59F2D0
->Track not present in AccurateRip database.
Statistics
Read error : 0
Skipped (treated as error) : 0
Edge jitter error (maybe fixed) : 0
Atom jitter error (maybe fixed) : 0
Drift error (maybe fixed) : 0
Dropped bytes error (maybe fixed) : 0
Duplicated bytes error (maybe fixed) : 0
Inconsistency in error sectors : 0
Track 04
Filename : /Volumes/HAL/whatcd/No BS Brass Band - Alive in Richmond (2009) [FLAC]/04 - Junpier.flac
Track gain : -9.24 dB
Peak : 0.966156
CRC32 hash (test run) : 06C33233
CRC32 hash : 06C33233
CRC32 hash (skip zero) : 29FD9529
AccurateRip signature : 2C826865
->Track not present in AccurateRip database.
Statistics
Read error : 0
Skipped (treated as error) : 0
Edge jitter error (maybe fixed) : 0
Atom jitter error (maybe fixed) : 0
Drift error (maybe fixed) : 0
Dropped bytes error (maybe fixed) : 0
Duplicated bytes error (maybe fixed) : 0
Inconsistency in error sectors : 0
Track 05
Filename : /Volumes/HAL/whatcd/No BS Brass Band - Alive in Richmond (2009) [FLAC]/05 - JackPot!.flac
Track gain : -9.20 dB
Peak : 0.966156
CRC32 hash (test run) : 6364577B
CRC32 hash : 6364577B
CRC32 hash (skip zero) : D7874E2B
AccurateRip signature : 76EE55A1
->Track not present in AccurateRip database.
Statistics
Read error : 0
Skipped (treated as error) : 0
Edge jitter error (maybe fixed) : 0
Atom jitter error (maybe fixed) : 0
Drift error (maybe fixed) : 0
Dropped bytes error (maybe fixed) : 0
Duplicated bytes error (maybe fixed) : 0
Inconsistency in error sectors : 0
Track 06
Filename : /Volumes/HAL/whatcd/No BS Brass Band - Alive in Richmond (2009) [FLAC]/06 - Bitch Iz Beast.flac
Track gain : -9.23 dB
Peak : 0.966156
CRC32 hash (test run) : 83B42793
CRC32 hash : 83B42793
CRC32 hash (skip zero) : 702C7CF6
AccurateRip signature : 2C97A223
->Track not present in AccurateRip database.
Statistics
Read error : 0
Skipped (treated as error) : 0
Edge jitter error (maybe fixed) : 0
Atom jitter error (maybe fixed) : 0
Drift error (maybe fixed) : 0
Dropped bytes error (maybe fixed) : 0
Duplicated bytes error (maybe fixed) : 0
Inconsistency in error sectors : 0
Track 07
Filename : /Volumes/HAL/whatcd/No BS Brass Band - Alive in Richmond (2009) [FLAC]/07 - HH.flac
Track gain : -9.10 dB
Peak : 0.966156
CRC32 hash (test run) : 869E667F
CRC32 hash : 869E667F
CRC32 hash (skip zero) : 4AD52F7B
AccurateRip signature : C0284F8E
->Track not present in AccurateRip database.
Statistics
Read error : 0
Skipped (treated as error) : 0
Edge jitter error (maybe fixed) : 0
Atom jitter error (maybe fixed) : 0
Drift error (maybe fixed) : 0
Dropped bytes error (maybe fixed) : 0
Duplicated bytes error (maybe fixed) : 0
Inconsistency in error sectors : 0
Track 08
Filename : /Volumes/HAL/whatcd/No BS Brass Band - Alive in Richmond (2009) [FLAC]/08 - Tom Sawyer.flac
Track gain : -9.70 dB
Peak : 0.966156
CRC32 hash (test run) : 83278D90
CRC32 hash : 83278D90
CRC32 hash (skip zero) : 8DE26848
AccurateRip signature : D38886A0
->Track not present in AccurateRip database.
Statistics
Read error : 0
Skipped (treated as error) : 0
Edge jitter error (maybe fixed) : 0
Atom jitter error (maybe fixed) : 0
Drift error (maybe fixed) : 0
Dropped bytes error (maybe fixed) : 0
Duplicated bytes error (maybe fixed) : 0
Inconsistency in error sectors : 0
Track 09
Filename : /Volumes/HAL/whatcd/No BS Brass Band - Alive in Richmond (2009) [FLAC]/09 - Cinnamon Girl.flac
Track gain : -10.05 dB
Peak : 0.966156
CRC32 hash (test run) : 3334D134
CRC32 hash : 3334D134
CRC32 hash (skip zero) : EC9F1C96
AccurateRip signature : 72A3B548
->Track not present in AccurateRip database.
Statistics
Read error : 0
Skipped (treated as error) : 0
Edge jitter error (maybe fixed) : 0
Atom jitter error (maybe fixed) : 0
Drift error (maybe fixed) : 0
Dropped bytes error (maybe fixed) : 0
Duplicated bytes error (maybe fixed) : 0
Inconsistency in error sectors : 0
Track 10
Filename : /Volumes/HAL/whatcd/No BS Brass Band - Alive in Richmond (2009) [FLAC]/10 - The Ballad of Eagle Claw (Duel Pt. 1).flac
Track gain : -7.27 dB
Peak : 0.966156
CRC32 hash (test run) : E57CB399
CRC32 hash : E57CB399
CRC32 hash (skip zero) : C94AA241
AccurateRip signature : 3F93239A
->Track not present in AccurateRip database.
Statistics
Read error : 0
Skipped (treated as error) : 0
Edge jitter error (maybe fixed) : 0
Atom jitter error (maybe fixed) : 0
Drift error (maybe fixed) : 0
Dropped bytes error (maybe fixed) : 0
Duplicated bytes error (maybe fixed) : 0
Inconsistency in error sectors : 0
Track 11
Filename : /Volumes/HAL/whatcd/No BS Brass Band - Alive in Richmond (2009) [FLAC]/11 - The Ballad of Eagle Claw (Iron Palm).flac
Track gain : -9.54 dB
Peak : 0.966156
CRC32 hash (test run) : DAA1D7B1
CRC32 hash : DAA1D7B1
CRC32 hash (skip zero) : 0CBE21F5
AccurateRip signature : 66D06C91
->Track not present in AccurateRip database.
Statistics
Read error : 0
Skipped (treated as error) : 0
Edge jitter error (maybe fixed) : 0
Atom jitter error (maybe fixed) : 0
Drift error (maybe fixed) : 0
Dropped bytes error (maybe fixed) : 0
Duplicated bytes error (maybe fixed) : 0
Inconsistency in error sectors : 0
Track 12
Filename : /Volumes/HAL/whatcd/No BS Brass Band - Alive in Richmond (2009) [FLAC]/12 - The Ballad of Eagle Claw (Duel Pt. 2).flac
Track gain : -7.24 dB
Peak : 0.966156
CRC32 hash (test run) : FAF157B8
CRC32 hash : FAF157B8
CRC32 hash (skip zero) : A3E1B02F
AccurateRip signature : 49593F7B
->Track not present in AccurateRip database.
Statistics
Read error : 0
Skipped (treated as error) : 0
Edge jitter error (maybe fixed) : 0
Atom jitter error (maybe fixed) : 0
Drift error (maybe fixed) : 0
Dropped bytes error (maybe fixed) : 0
Duplicated bytes error (maybe fixed) : 0
Inconsistency in error sectors : 0
Track 13
Filename : /Volumes/HAL/whatcd/No BS Brass Band - Alive in Richmond (2009) [FLAC]/13 - The Ballad of Eagle Claw (The Lizard).flac
Track gain : -9.15 dB
Peak : 0.966156
CRC32 hash (test run) : A80B79C3
CRC32 hash : A80B79C3
CRC32 hash (skip zero) : B6E6504A
AccurateRip signature : 2F20A131
->Track not present in AccurateRip database.
Statistics
Read error : 0
Skipped (treated as error) : 0
Edge jitter error (maybe fixed) : 0
Atom jitter error (maybe fixed) : 0
Drift error (maybe fixed) : 0
Dropped bytes error (maybe fixed) : 0
Duplicated bytes error (maybe fixed) : 0
Inconsistency in error sectors : 0
Track 14
Filename : /Volumes/HAL/whatcd/No BS Brass Band - Alive in Richmond (2009) [FLAC]/14 - The Ballad of Eagle Claw (Duel Pt. 3).flac
Track gain : -7.26 dB
Peak : 0.966156
CRC32 hash (test run) : 7B53CE07
CRC32 hash : 7B53CE07
CRC32 hash (skip zero) : A56B76CD
AccurateRip signature : 0E28A729
->Track not present in AccurateRip database.
Statistics
Read error : 0
Skipped (treated as error) : 0
Edge jitter error (maybe fixed) : 0
Atom jitter error (maybe fixed) : 0
Drift error (maybe fixed) : 0
Dropped bytes error (maybe fixed) : 0
Duplicated bytes error (maybe fixed) : 0
Inconsistency in error sectors : 0
Track 15
Filename : /Volumes/HAL/whatcd/No BS Brass Band - Alive in Richmond (2009) [FLAC]/15 - The Ballad of Eagle Claw (The Centipede-Toad = Mantis Style-Student).flac
Track gain : -9.44 dB
Peak : 0.966156
CRC32 hash (test run) : 757FEED3
CRC32 hash : 757FEED3
CRC32 hash (skip zero) : 171C3015
AccurateRip signature : 93182731
->Track not present in AccurateRip database.
Statistics
Read error : 0
Skipped (treated as error) : 0
Edge jitter error (maybe fixed) : 0
Atom jitter error (maybe fixed) : 0
Drift error (maybe fixed) : 0
Dropped bytes error (maybe fixed) : 0
Duplicated bytes error (maybe fixed) : 0
Inconsistency in error sectors : 0
Track 16
Filename : /Volumes/HAL/whatcd/No BS Brass Band - Alive in Richmond (2009) [FLAC]/16 - The Ending.flac
Track gain : -9.31 dB
Peak : 0.966156
CRC32 hash (test run) : 7D367E9E
CRC32 hash : 7D367E9E
CRC32 hash (skip zero) : 7E0C39C5
AccurateRip signature : 09759E2E
->Track not present in AccurateRip database.
Statistics
Read error : 0
Skipped (treated as error) : 0
Edge jitter error (maybe fixed) : 0
Atom jitter error (maybe fixed) : 0
Drift error (maybe fixed) : 0
Dropped bytes error (maybe fixed) : 0
Duplicated bytes error (maybe fixed) : 0
Inconsistency in error sectors : 0
No errors occurred
End of status report
 
Содержание индексной карты (.CUE)
TITLE "Alive in Richmond"
PERFORMER "No BS Brass Band"
REM GENRE "Jazz"
REM DATE "2009"
REM DISCNUMBER 1
REM TOTALDISCS 1
REM DISCID D810D610
REM REPLAYGAIN_ALBUM_GAIN -9.40 dB
REM REPLAYGAIN_ALBUM_PEAK 0.966156
FILE "01 - Landmines.wav" WAVE
TRACK 01 AUDIO
TITLE "Landmines"
SONGWRITER "Koehler"
REM REPLAYGAIN_TRACK_GAIN -9.83 dB
REM REPLAYGAIN_TRACK_PEAK 0.966156
INDEX 01 00:00:00
FILE "02 - Lando.wav" WAVE
TRACK 02 AUDIO
TITLE "Lando"
SONGWRITER "Ingraham, No BS"
REM REPLAYGAIN_TRACK_GAIN -9.19 dB
REM REPLAYGAIN_TRACK_PEAK 0.966156
INDEX 01 00:00:00
FILE "03 - Ain't Even Gonna Call Ya.wav" WAVE
TRACK 03 AUDIO
TITLE "Ain't Even Gonna Call Ya"
SONGWRITER "Koehler"
REM REPLAYGAIN_TRACK_GAIN -9.23 dB
REM REPLAYGAIN_TRACK_PEAK 0.966156
INDEX 01 00:00:00
FILE "04 - Junpier.wav" WAVE
TRACK 04 AUDIO
TITLE "Junpier"
SONGWRITER "Koehler"
REM REPLAYGAIN_TRACK_GAIN -9.24 dB
REM REPLAYGAIN_TRACK_PEAK 0.966156
INDEX 01 00:00:00
FILE "05 - JackPot!.wav" WAVE
TRACK 05 AUDIO
TITLE "JackPot!"
SONGWRITER "Koehler"
REM REPLAYGAIN_TRACK_GAIN -9.20 dB
REM REPLAYGAIN_TRACK_PEAK 0.966156
INDEX 01 00:00:00
FILE "06 - Bitch Iz Beast.wav" WAVE
TRACK 06 AUDIO
TITLE "Bitch Iz Beast"
SONGWRITER "Koehler"
REM REPLAYGAIN_TRACK_GAIN -9.23 dB
REM REPLAYGAIN_TRACK_PEAK 0.966156
INDEX 01 00:00:00
FILE "07 - HH.wav" WAVE
TRACK 07 AUDIO
TITLE "HH"
SONGWRITER "Pace"
REM REPLAYGAIN_TRACK_GAIN -9.10 dB
REM REPLAYGAIN_TRACK_PEAK 0.966156
INDEX 01 00:00:00
FILE "08 - Tom Sawyer.wav" WAVE
TRACK 08 AUDIO
TITLE "Tom Sawyer"
SONGWRITER "Lee, Lifeson, Peart, Dubois"
REM REPLAYGAIN_TRACK_GAIN -9.70 dB
REM REPLAYGAIN_TRACK_PEAK 0.966156
INDEX 01 00:00:00
FILE "09 - Cinnamon Girl.wav" WAVE
TRACK 09 AUDIO
TITLE "Cinnamon Girl"
SONGWRITER "Chapman"
REM REPLAYGAIN_TRACK_GAIN -10.05 dB
REM REPLAYGAIN_TRACK_PEAK 0.966156
INDEX 01 00:00:00
FILE "10 - The Ballad of Eagle Claw (Duel Pt. 1).wav" WAVE
TRACK 10 AUDIO
TITLE "The Ballad of Eagle Claw (Duel Pt. 1)"
SONGWRITER "Pace"
REM REPLAYGAIN_TRACK_GAIN -7.27 dB
REM REPLAYGAIN_TRACK_PEAK 0.966156
INDEX 01 00:00:00
FILE "11 - The Ballad of Eagle Claw (Iron Palm).wav" WAVE
TRACK 11 AUDIO
TITLE "The Ballad of Eagle Claw (Iron Palm)"
SONGWRITER "Pace"
REM REPLAYGAIN_TRACK_GAIN -9.54 dB
REM REPLAYGAIN_TRACK_PEAK 0.966156
INDEX 01 00:00:00
FILE "12 - The Ballad of Eagle Claw (Duel Pt. 2).wav" WAVE
TRACK 12 AUDIO
TITLE "The Ballad of Eagle Claw (Duel Pt. 2)"
SONGWRITER "Pace"
REM REPLAYGAIN_TRACK_GAIN -7.24 dB
REM REPLAYGAIN_TRACK_PEAK 0.966156
INDEX 01 00:00:00
FILE "13 - The Ballad of Eagle Claw (The Lizard).wav" WAVE
TRACK 13 AUDIO
TITLE "The Ballad of Eagle Claw (The Lizard)"
SONGWRITER "Pace"
REM REPLAYGAIN_TRACK_GAIN -9.15 dB
REM REPLAYGAIN_TRACK_PEAK 0.966156
INDEX 01 00:00:00
FILE "14 - The Ballad of Eagle Claw (Duel Pt. 3).wav" WAVE
TRACK 14 AUDIO
TITLE "The Ballad of Eagle Claw (Duel Pt. 3)"
SONGWRITER "Pace"
REM REPLAYGAIN_TRACK_GAIN -7.26 dB
REM REPLAYGAIN_TRACK_PEAK 0.966156
INDEX 01 00:00:00
FILE "15 - The Ballad of Eagle Claw (The Centipede-Toad = Mantis Style-Student).wav" WAVE
TRACK 15 AUDIO
TITLE "The Ballad of Eagle Claw (The Centipede-Toad = Mantis Style-Student)"
SONGWRITER "Pace"
REM REPLAYGAIN_TRACK_GAIN -9.44 dB
REM REPLAYGAIN_TRACK_PEAK 0.966156
INDEX 01 00:00:00
FILE "16 - The Ending.wav" WAVE
TRACK 16 AUDIO
TITLE "The Ending"
SONGWRITER "Pace, No BS"
REM REPLAYGAIN_TRACK_GAIN -9.31 dB
REM REPLAYGAIN_TRACK_PEAK 0.966156
INDEX 01 00:00:00
 
Об исполнителе (группе)
Based in Richmond, Virginia, No BS! Brass Band has quickly earned a reputation as a premiere band to see for heart-pounding energy and uncontrollable dancing. They take their music into uncharted territory, embracing the spirit of New Orleans into its original East Coast modern funk and fearlessly combining elements of James Brown, John Coltrane, Michael Jackson, and Led Zeppelin into their fiercely original sound.
Founders Reggie Pace and Lance Koehler have cast this 11-piece band in which nearly every member has had conservatory training, holding various degrees in music. In putting together the compositions and arrangements, the “b.s.” has been stripped to give the audience something solid, unique, organic, real, and powerful. They have the look of New Orleans with the raw sound all their own -- music is a true definition of the “Richmond sound.”
nobsbrass.com
 
Об альбоме (сборнике)
 
Состав
Состав в последнем треке
Приватный:
Нет (DHT включён)
Размер:
455.54 Мб (477,672,207 байт) » файлов: 23
Участники:
0 раздают, 0 качают (0 участников всего)
Внешние участники:
2 раздают, 1 качают (3 участников всего) [ Обновить ]
Есть вопросы - пишите личное сообщение пользователю M0p94ok.
11:09
50
Нет комментариев. Ваш будет первым!