Поиск

(Philly Soul) [CD] Harold Melvin & the Blue Notes - Wake Up Everybody (feat. Teddy Pendergrass, Bernard Wilson) - 2008, FLAC (tracks+.cue), lossless

(Philly Soul) [CD] Harold Melvin & the Blue Notes - Wake Up Everybody (feat. Teddy Pendergrass, Bernard Wilson) - 2008, FLAC (tracks+.cue), lossless
Треклист:
Harold Melvin & the Blue Notes / Wake Up Everybody
Жанр: Philly Soul
Носитель: CD
Год издания: 2008
Издатель (лейбл): Legacy
Номер по каталогу: 88697 34010 2
Аудиокодек: FLAC (*.flac)
Тип рипа: tracks+.cue
Битрейт аудио: lossless
Продолжительность: 00:46:04
Источник (релизер): megalos
Наличие сканов в содержимом раздачи: да
Треклист:
1) Wake Up Everybody
2) Keep On Loving You
3) You Know How To Make Me Feel So Good f. Sharon Paige
4) Don't Leave Me This Way
5) Tell The World
6) To Be Free
7) I'm Searching For A Love
Bonus tracks:
8) Don't Leave Me This Way [Tom Moulton Mix] - Bonus Track
 
Лог создания рипа
Exact Audio Copy V0.99 prebeta 4 from 23. January 2008
EAC extraction logfile from 26. March 2009, 12:45
Harold Melvin & The Blue Notes / Wake Up Everybody
Used drive : PIONEER DVD-RW DVR-116D Adapter: 0 ID: 0
Read mode : Secure
Utilize accurate stream : Yes
Defeat audio cache : Yes
Make use of C2 pointers : No
Read offset correction : 96
Overread into Lead-In and Lead-Out : No
Fill up missing offset samples with silence : Yes
Delete leading and trailing silent blocks : No
Null samples used in CRC calculations : Yes
Used interface : Installed external ASPI interface
Gap handling : Appended to previous track
Used output format : User Defined Encoder
Selected bitrate : 128 kBit/s
Quality : High
Add ID3 tag : No
Command line compressor : C:\Program Files\FLAC\flac.exe
Additional command line options : -V -8 -T "artist=%a" -T "title=%t" -T "album=%g" -T "date=%y" -T "tracknumber=%n" -T "genre=%m" %s
TOC of the extracted CD
Track | Start | Length | Start sector | End sector
---------------------------------------------------------
1 | 0:00.00 | 7:32.58 | 0 | 33957
2 | 7:32.58 | 3:40.70 | 33958 | 50527
3 | 11:13.53 | 5:16.67 | 50528 | 74294
4 | 16:30.45 | 6:03.73 | 74295 | 101592
5 | 22:34.43 | 5:52.50 | 101593 | 128042
6 | 28:27.18 | 5:08.25 | 128043 | 151167
7 | 33:35.43 | 5:23.02 | 151168 | 175394
8 | 38:58.45 | 7:05.03 | 175395 | 207272
Track 1
Filename F:\Harold Melvin & The Blue Notes - Wake Up Everybody ( 2008 Remastered )\01 Harold Melvin & The Blue Notes - Wake Up Everybody.wav
Pre-gap length 0:00:02.00
Peak level 99.8 %
Track quality 100.0 %
Test CRC 32A7553E
Copy CRC 32A7553E
Accurately ripped (confidence 1) [1639D3C1]
Copy OK
Track 2
Filename F:\Harold Melvin & The Blue Notes - Wake Up Everybody ( 2008 Remastered )\02 Harold Melvin & The Blue Notes - Keep On Lovin' You.wav
Peak level 99.8 %
Track quality 100.0 %
Test CRC 3F32A114
Copy CRC 3F32A114
Accurately ripped (confidence 1) [36D9E944]
Copy OK
Track 3
Filename F:\Harold Melvin & The Blue Notes - Wake Up Everybody ( 2008 Remastered )\03 Harold Melvin & The Blue Notes - You Know How To Make Me Feel So Good (Featuring Sharon Paige).wav
Peak level 89.0 %
Track quality 100.0 %
Test CRC 9A762352
Copy CRC 9A762352
Accurately ripped (confidence 1) [E2ED4DDA]
Copy OK
Track 4
Filename F:\Harold Melvin & The Blue Notes - Wake Up Everybody ( 2008 Remastered )\04 Harold Melvin & The Blue Notes - Don't Leave Me This Way.wav
Peak level 99.8 %
Track quality 100.0 %
Test CRC 0407F5E9
Copy CRC 0407F5E9
Accurately ripped (confidence 1) [64B5C706]
Copy OK
Track 5
Filename F:\Harold Melvin & The Blue Notes - Wake Up Everybody ( 2008 Remastered )\05 Harold Melvin & The Blue Notes - Tell The World How I Feel About 'cha Baby.wav
Peak level 89.0 %
Track quality 99.9 %
Test CRC 9B3AB346
Copy CRC 9B3AB346
Accurately ripped (confidence 1) [AE2B0918]
Copy OK
Track 6
Filename F:\Harold Melvin & The Blue Notes - Wake Up Everybody ( 2008 Remastered )\06 Harold Melvin & The Blue Notes - To Be Free To Be Who We Are.wav
Peak level 89.0 %
Track quality 100.0 %
Test CRC 7F95CC8D
Copy CRC 7F95CC8D
Cannot be verified as accurate (confidence 1) [426C5732], AccurateRip returned [F424DDF9]
Copy OK
Track 7
Filename F:\Harold Melvin & The Blue Notes - Wake Up Everybody ( 2008 Remastered )\07 Harold Melvin & The Blue Notes - I'm Searching For A Love.wav
Peak level 99.8 %
Track quality 100.0 %
Test CRC 44246CC3
Copy CRC 44246CC3
Cannot be verified as accurate (confidence 1) [7D85F399], AccurateRip returned [0E1BFD70]
Copy OK
Track 8
Filename F:\Harold Melvin & The Blue Notes - Wake Up Everybody ( 2008 Remastered )\08 Harold Melvin & The Blue Notes - Don't Leave Me This Way (A Tom Moulton Mix).wav
Pre-gap length 0:00:00.80
Peak level 99.8 %
Track quality 99.9 %
Test CRC 7D5A51FF
Copy CRC 7D5A51FF
Accurately ripped (confidence 1) [E636840C]
Copy OK
6 track(s) accurately ripped
2 track(s) could not be verified as accurate
Some tracks could not be verified as accurate
No errors occurred
End of status report
 
Содержание индексной карты (.CUE)
REM DISCID 680ACB08
REM COMMENT "ExactAudioCopy v0.99pb4"
PERFORMER "Harold Melvin & The Blue Notes"
TITLE "Wake Up Everybody"
FILE "01 Harold Melvin & The Blue Notes - Wake Up Everybody.wav" WAVE
TRACK 01 AUDIO
TITLE "Wake Up Everybody"
PERFORMER "Harold Melvin & The Blue Notes"
INDEX 01 00:00:00
FILE "02 Harold Melvin & The Blue Notes - Keep On Lovin' You.wav" WAVE
TRACK 02 AUDIO
TITLE "Keep On Lovin' You"
PERFORMER "Harold Melvin & The Blue Notes"
INDEX 01 00:00:00
FILE "03 Harold Melvin & The Blue Notes - You Know How To Make Me Feel So Good (Featuring Sharon Paige).wav" WAVE
TRACK 03 AUDIO
TITLE "You Know How To Make Me Feel So Good (Featuring Sharon Paige)"
PERFORMER "Harold Melvin & The Blue Notes"
INDEX 01 00:00:00
FILE "04 Harold Melvin & The Blue Notes - Don't Leave Me This Way.wav" WAVE
TRACK 04 AUDIO
TITLE "Don't Leave Me This Way"
PERFORMER "Harold Melvin & The Blue Notes"
INDEX 01 00:00:00
FILE "05 Harold Melvin & The Blue Notes - Tell The World How I Feel About 'cha Baby.wav" WAVE
TRACK 05 AUDIO
TITLE "Tell The World How I Feel About 'cha Baby"
PERFORMER "Harold Melvin & The Blue Notes"
INDEX 01 00:00:00
FILE "06 Harold Melvin & The Blue Notes - To Be Free To Be Who We Are.wav" WAVE
TRACK 06 AUDIO
TITLE "To Be Free To Be Who We Are"
PERFORMER "Harold Melvin & The Blue Notes"
INDEX 01 00:00:00
FILE "07 Harold Melvin & The Blue Notes - I'm Searching For A Love.wav" WAVE
TRACK 07 AUDIO
TITLE "I'm Searching For A Love"
PERFORMER "Harold Melvin & The Blue Notes"
INDEX 01 00:00:00
TRACK 08 AUDIO
TITLE "Don't Leave Me This Way (A Tom Moulton Mix)"
PERFORMER "Harold Melvin & The Blue Notes"
INDEX 00 05:22:17
FILE "08 Harold Melvin & The Blue Notes - Don't Leave Me This Way (A Tom Moulton Mix).wav" WAVE
INDEX 01 00:00:00
 
Об альбоме (сборнике)
AllMusic Review by Anthony Tognazzini:
Philly soul staples Harold Melvin & the Blue Notes were in full swing on 1975's Wake Up Everybody. Sporting their trademark lush, string-laden production from Gamble and Huff (who also wrote about half the album's material), the smooth soul outfit delivers a mix of deep soul balladry and uptempo dance tracks. The title track, with its socially relevant messages, is a standout. There is no shortage of fine vocal performances all around, notably from Melvin and from future solo star Teddy Pendergrass.
 
Состав
Harold Melvin, Teddy Pendergrass, Bernard Wilson, Lawrence Brown, Jerry Cummings – vocals
Sharon Paige – female vocalist on "You Know How to Make Me Feel So Good" and "I'm Searching for a Love"
MFSB – music
Producer – Kenneth Gamble And Leon Huff
Приватный:
Нет (DHT включён)
Размер:
304.02 Мб (318,790,244 байт) » файлов: 15
Участники:
0 раздают, 0 качают (0 участников всего)
Внешние участники:
7 раздают, 2 качают (9 участников всего) [ Обновить ]
Есть вопросы - пишите личное сообщение пользователю M0p94ok.
11:10
58
Нет комментариев. Ваш будет первым!