Поиск

(Soul) [CD] Michael Kiwanuka - Love & Hate - 2016, FLAC (image+.cue), lossless

(Soul) [CD] Michael Kiwanuka - Love & Hate - 2016, FLAC (image+.cue), lossless
Треклист:
Michael Kiwanuka / Love & Hate
Жанр: Soul
Носитель: CD
Страна-производитель диска (релиза): EU
Год издания: 2016
Издатель (лейбл): Polydor
Номер по каталогу: 4785905
Страна исполнителя (группы): UK
Аудиокодек: FLAC (*.flac)
Тип рипа: image+.cue
Битрейт аудио: lossless
Продолжительность: 00:55:07
Источник (релизер): usenet
Наличие сканов в содержимом раздачи: да
Треклист:
01. Cold Little Heart (10:10)
02. Black Man In A White World (4:19)
03. Falling (4:17)
04. Place I Belong (4:48)
05. Love & Hate (7:07)
06. One More Night (3:53)
07. I'll Never Love (2:46)
08. Rule The World (5:43)
09. Father's Child (7:05)
10. The Final Frame (5:00)
 
Лог создания рипа
Exact Audio Copy V1.1 from 23. June 2015
EAC extraction logfile from 14. July 2016, 19:36
Michael Kiwanuka / Love & Hate
Used drive : HL-DT-STDVDRAM GH24NSD1 Adapter: 0 ID: 0
Read mode : Secure
Utilize accurate stream : Yes
Defeat audio cache : Yes
Make use of C2 pointers : No
Read offset correction : 6
Overread into Lead-In and Lead-Out : No
Fill up missing offset samples with silence : Yes
Delete leading and trailing silent blocks : No
Null samples used in CRC calculations : Yes
Used interface : Installed external ASPI interface
Used output format : Internal WAV Routines
Sample format : 44.100 Hz; 16 Bit; Stereo
TOC of the extracted CD
Track | Start | Length | Start sector | End sector
---------------------------------------------------------
1 | 0:00.00 | 10:10.36 | 0 | 45785
2 | 10:10.36 | 4:18.72 | 45786 | 65207
3 | 14:29.33 | 4:16.66 | 65208 | 84473
4 | 18:46.24 | 4:47.39 | 84474 | 106037
5 | 23:33.63 | 7:07.07 | 106038 | 138069
6 | 30:40.70 | 3:53.31 | 138070 | 155575
7 | 34:34.26 | 2:45.74 | 155576 | 168024
8 | 37:20.25 | 5:42.62 | 168025 | 193736
9 | 43:03.12 | 7:05.11 | 193737 | 225622
10 | 50:08.23 | 4:59.48 | 225623 | 248095
Range status and errors
Selected range
Filename H:\SPOTNET\Michael Kiwanuka - Love & Hate\Michael Kiwanuka - Love & Hate (EAC)\Michael Kiwanuka - Love & Hate.wav
Peak level 98.1 %
Extraction speed 7.4 X
Range quality 100.0 %
Test CRC 687D7BA5
Copy CRC 687D7BA5
Copy OK
No errors occurred
AccurateRip summary
Track 1 not present in database
Track 2 not present in database
Track 3 not present in database
Track 4 not present in database
Track 5 not present in database
Track 6 not present in database
Track 7 not present in database
Track 8 not present in database
Track 9 not present in database
Track 10 not present in database
None of the tracks are present in the AccurateRip database
End of status report
 
Содержание индексной карты (.CUE)
REM GENRE Soul
REM DATE 2016
REM DISCID 720CEB0A
REM COMMENT "ExactAudioCopy v1.1"
PERFORMER "Michael Kiwanuka"
TITLE "Love & Hate"
FILE "Michael Kiwanuka - Love & Hate.wav" WAVE
TRACK 01 AUDIO
TITLE "Cold Little Heart"
PERFORMER "Michael Kiwanuka"
INDEX 01 00:00:00
TRACK 02 AUDIO
TITLE "Black Man In A White World"
PERFORMER "Michael Kiwanuka"
INDEX 01 10:10:36
TRACK 03 AUDIO
TITLE "Falling"
PERFORMER "Michael Kiwanuka"
INDEX 01 14:29:33
TRACK 04 AUDIO
TITLE "Place I Belong"
PERFORMER "Michael Kiwanuka"
INDEX 01 18:46:24
TRACK 05 AUDIO
TITLE "Love & Hate"
PERFORMER "Michael Kiwanuka"
INDEX 01 23:33:63
TRACK 06 AUDIO
TITLE "One More Night"
PERFORMER "Michael Kiwanuka"
INDEX 01 30:40:70
TRACK 07 AUDIO
TITLE "I'll Never Love"
PERFORMER "Michael Kiwanuka"
INDEX 01 34:34:26
TRACK 08 AUDIO
TITLE "Rule The World"
PERFORMER "Michael Kiwanuka"
INDEX 01 37:20:25
TRACK 09 AUDIO
TITLE "Father's Child"
PERFORMER "Michael Kiwanuka"
INDEX 01 43:03:12
TRACK 10 AUDIO
TITLE "The Final Frame"
PERFORMER "Michael Kiwanuka"
INDEX 00 50:06:41
INDEX 01 50:08:23
 
Лог проверки качества
fooCDtect - foobar2000 + auCDtect, baralgin.
auCDtect: CD records authenticity detector, version 0.8.2
Copyright (c) 2004 Oleg Berngardt. All rights reserved.
Copyright (c) 2004 Alexander Djourik. All rights reserved.
mode: 0
===========================================
Track: 01. Michael Kiwanuka - Cold Little Heart
Processing file: [01. Michael Kiwanuka - Cold Little Heart.aucdtect]
Detected average hi-boundary frequency: 2.048498e+004 Hz
Detected average lo-boundary frequency: 1.383599e+004 Hz
Detected average hi-cut frequency: 2.173694e+004 Hz
Detected average lo-cut frequency: 1.647504e+004 Hz
Maximum probablis boundary frequency: 2.121300e+004 Hz
Coefficient of nonlinearity of a phase: 1.057944e+000
First order smothness: 3.523679e-001
Second order smothness: 7.994518e-001
------------------------------------------------------------
This track looks like CDDA with probability 100%
===========================================
Track: 02. Michael Kiwanuka - Black Man In A White World
Processing file: [02. Michael Kiwanuka - Black Man In A White World.aucdtect]
Detected average hi-boundary frequency: 2.030023e+004 Hz
Detected average lo-boundary frequency: 1.368560e+004 Hz
Detected average hi-cut frequency: 2.170492e+004 Hz
Detected average lo-cut frequency: 8.583129e+003 Hz
Maximum probablis boundary frequency: 2.189100e+004 Hz
Coefficient of nonlinearity of a phase: 3.091432e-001
First order smothness: 4.609572e-001
Second order smothness: 4.587981e-001
------------------------------------------------------------
This track looks like CDDA with probability 100%
===========================================
Track: 03. Michael Kiwanuka - Falling
Processing file: [03. Michael Kiwanuka - Falling.aucdtect]
Detected average hi-boundary frequency: 2.008418e+004 Hz
Detected average lo-boundary frequency: 1.347164e+004 Hz
Detected average hi-cut frequency: 2.178128e+004 Hz
Detected average lo-cut frequency: 8.366719e+003 Hz
Maximum probablis boundary frequency: 2.189100e+004 Hz
Coefficient of nonlinearity of a phase: 8.526462e-001
First order smothness: 3.176215e-001
Second order smothness: 6.881798e-001
------------------------------------------------------------
This track looks like CDDA with probability 100%
===========================================
Track: 04. Michael Kiwanuka - Place I Belong
Processing file: [04. Michael Kiwanuka - Place I Belong.aucdtect]
Detected average hi-boundary frequency: 2.031035e+004 Hz
Detected average lo-boundary frequency: 1.384119e+004 Hz
Detected average hi-cut frequency: 2.151027e+004 Hz
Detected average lo-cut frequency: 1.230057e+004 Hz
Maximum probablis boundary frequency: 2.117000e+004 Hz
Coefficient of nonlinearity of a phase: 7.471977e-001
First order smothness: 3.289047e-001
Second order smothness: 6.578095e-001
------------------------------------------------------------
This track looks like CDDA with probability 100%
===========================================
Track: 05. Michael Kiwanuka - Love & Hate
Processing file: [05. Michael Kiwanuka - Love & Hate.aucdtect]
Detected average hi-boundary frequency: 2.013588e+004 Hz
Detected average lo-boundary frequency: 1.348086e+004 Hz
Detected average hi-cut frequency: 2.173410e+004 Hz
Detected average lo-cut frequency: 1.253353e+004 Hz
Maximum probablis boundary frequency: 2.189100e+004 Hz
Coefficient of nonlinearity of a phase: 9.409495e-001
First order smothness: 3.513868e-001
Second order smothness: 6.676130e-001
------------------------------------------------------------
This track looks like CDDA with probability 100%
===========================================
Track: 06. Michael Kiwanuka - One More Night
Processing file: [06. Michael Kiwanuka - One More Night.aucdtect]
Detected average hi-boundary frequency: 2.004317e+004 Hz
Detected average lo-boundary frequency: 1.258063e+004 Hz
Detected average hi-cut frequency: 2.173616e+004 Hz
Detected average lo-cut frequency: 6.268966e+003 Hz
Maximum probablis boundary frequency: 2.189100e+004 Hz
Coefficient of nonlinearity of a phase: 7.559211e-001
First order smothness: 3.863364e-001
Second order smothness: 5.073911e-001
------------------------------------------------------------
This track looks like CDDA with probability 100%
===========================================
Track: 07. Michael Kiwanuka - I'll Never Love
Processing file: [07. Michael Kiwanuka - I'll Never Love.aucdtect]
Detected average hi-boundary frequency: 2.022749e+004 Hz
Detected average lo-boundary frequency: 1.289769e+004 Hz
Detected average hi-cut frequency: 2.174477e+004 Hz
Detected average lo-cut frequency: 1.044713e+004 Hz
Maximum probablis boundary frequency: 2.189100e+004 Hz
Coefficient of nonlinearity of a phase: 1.624523e+000
First order smothness: 4.120292e-001
Second order smothness: 6.346262e-001
------------------------------------------------------------
This track looks like CDDA with probability 100%
===========================================
Track: 08. Michael Kiwanuka - Rule The World
Processing file: [08. Michael Kiwanuka - Rule The World.aucdtect]
Detected average hi-boundary frequency: 2.046268e+004 Hz
Detected average lo-boundary frequency: 1.359910e+004 Hz
Detected average hi-cut frequency: 2.162271e+004 Hz
Detected average lo-cut frequency: 1.393934e+004 Hz
Maximum probablis boundary frequency: 2.119100e+004 Hz
Coefficient of nonlinearity of a phase: 4.971976e-001
First order smothness: 3.781581e-001
Second order smothness: 7.234447e-001
------------------------------------------------------------
This track looks like CDDA with probability 99%
===========================================
Track: 09. Michael Kiwanuka - Father's Child
Processing file: [09. Michael Kiwanuka - Father's Child.aucdtect]
Detected average hi-boundary frequency: 2.017019e+004 Hz
Detected average lo-boundary frequency: 1.354360e+004 Hz
Detected average hi-cut frequency: 2.153276e+004 Hz
Detected average lo-cut frequency: 1.037889e+004 Hz
Maximum probablis boundary frequency: 2.189100e+004 Hz
Coefficient of nonlinearity of a phase: 3.649224e-001
First order smothness: 4.051496e-001
Second order smothness: 6.454665e-001
------------------------------------------------------------
This track looks like CDDA with probability 100%
===========================================
Track: 10. Michael Kiwanuka - The Final Frame
Processing file: [10. Michael Kiwanuka - The Final Frame.aucdtect]
Detected average hi-boundary frequency: 2.077777e+004 Hz
Detected average lo-boundary frequency: 1.350615e+004 Hz
Detected average hi-cut frequency: 2.181244e+004 Hz
Detected average lo-cut frequency: 1.856239e+004 Hz
Maximum probablis boundary frequency: 2.117500e+004 Hz
Coefficient of nonlinearity of a phase: 1.135106e+000
First order smothness: 3.324022e-001
Second order smothness: 8.625078e-001
------------------------------------------------------------
This track looks like CDDA with probability 100%
===========================================
 
Динамический диапазон
foobar2000 1.3.8 / Dynamic Range Meter 1.1.1
log date: 2016-07-14 21:56:42
--------------------------------------------------------------------------------
Analyzed: Michael Kiwanuka / Love & Hate
--------------------------------------------------------------------------------
DR Peak RMS Duration Track
--------------------------------------------------------------------------------
DR7 -0.16 dB -9.66 dB 10:10 01-Cold Little Heart
DR8 -0.16 dB -10.32 dB 4:19 02-Black Man In A White World
DR8 -0.16 dB -10.18 dB 4:17 03-Falling
DR9 -0.16 dB -12.03 dB 4:48 04-Place I Belong
DR7 -0.16 dB -9.95 dB 7:07 05-Love & Hate
DR8 -0.16 dB -9.36 dB 3:53 06-One More Night
DR9 -0.16 dB -10.78 dB 2:46 07-I'll Never Love
DR8 -0.16 dB -10.59 dB 5:43 08-Rule The World
DR7 -0.16 dB -10.29 dB 7:05 09-Father's Child
DR8 -0.16 dB -11.08 dB 5:00 10-The Final Frame
--------------------------------------------------------------------------------
Number of tracks: 10
Official DR value: DR8
Samplerate: 44100 Hz
Channels: 2
Bits per sample: 16
Bitrate: 848 kbps
Codec: FLAC
================================================================================
http://michaelkiwanuka.com/
https://ru.wikipedia.org/wiki/Киванука,_Майкл
https://www.youtube.com/user/MichaelKiwanukaVEVO
Приватный:
Нет (DHT включён)
Размер:
335.62 Мб (351,921,169 байт) » файлов: 8
Участники:
0 раздают, 0 качают (0 участников всего)
Внешние участники:
1 раздают, 0 качают (1 участников всего) [ Обновить ]
Есть вопросы - пишите личное сообщение пользователю M0p94ok.
11:10
1332
Нет комментариев. Ваш будет первым!