Поиск

(R&B, Contemporary Jazz) [CD] Erimaj (w/ Jamire Williams) - Conflict of a Man - 2012 (2014 Japan Edition), FLAC (tracks+.cue), lossless

(R&B, Contemporary Jazz) [CD] Erimaj (w/ Jamire Williams) - Conflict of a Man - 2012 (2014 Japan Edition), FLAC (tracks+.cue), lossless
Треклист:
ERIMAJ - Conflict of a Man
Жанр: R&B, Contemporary Jazz
Носитель: CD
Страна-производитель диска (релиза): Япония
Год издания: 2014
Издатель (лейбл): Octave
Номер по каталогу: OTCD-3661
Аудиокодек: FLAC (*.flac)
Тип рипа: tracks+.cue
Битрейт аудио: lossless
Продолжительность: 50:03
Источник (релизер): elysofly (what)
Наличие сканов в содержимом раздачи: нет
Треклист:
01. Unrest (Journey to the Land of Milk & Honey) (Jamire Williams) - 3:34
02. Black Super Hero Theme Song (Corey King) - 7:24
03. This Night, This Song (Tony Williams) - 7:58
04. The Day the Sun Rose Twice (Jamire Williams/Corey King) - 5:26
05. Nothing Like This (James Yancey) - 3:51
06. Plants (Jamire Williams/Corey King) - 6:20
07. Conflict of a Man (Alan Hampton/Jamire Williams/Corey King) - 4:14
08. Social Life (Jamire Williams/Corey King) - 4:49
09. Choosing Sides (Matthew Stevens) - 6:27
 
Лог создания рипа
X Lossless Decoder version 20151214 (149.1)
XLD extraction logfile from 2016-07-12 20:29:59 -0400
Erimaj / Conflict Of A Man
Used drive : MATSHITA DVD-R UJ-8A8 (revision HB14)
Media type : Pressed CD
Ripper mode : XLD Secure Ripper
Disable audio cache : OK for the drive with a cache less than 1375KiB
Make use of C2 pointers : NO
Read offset correction : 102
Max retry count : 20
Gap status : Analyzed, Appended
TOC of the extracted CD
Track | Start | Length | Start sector | End sector
---------------------------------------------------------
1 | 00:00:00 | 03:33:48 | 0 | 16022
2 | 03:33:48 | 07:23:48 | 16023 | 49295
3 | 10:57:21 | 07:58:00 | 49296 | 85145
4 | 18:55:21 | 05:26:31 | 85146 | 109626
5 | 24:21:52 | 03:51:26 | 109627 | 126977
6 | 28:13:03 | 06:19:65 | 126978 | 155467
7 | 34:32:68 | 04:13:60 | 155468 | 174502
8 | 38:46:53 | 04:48:39 | 174503 | 196141
9 | 43:35:17 | 06:26:58 | 196142 | 225149
AccurateRip Summary (DiscID: 00115e9d-007f2150-790bba09)
Track 01 : OK (v2, confidence 4/4)
Track 02 : OK (v2, confidence 4/4)
Track 03 : OK (v2, confidence 4/4)
Track 04 : OK (v2, confidence 4/4)
Track 05 : OK (v2, confidence 4/4)
Track 06 : OK (v2, confidence 4/4)
Track 07 : OK (v2, confidence 4/4)
Track 08 : OK (v2, confidence 4/4)
Track 09 : OK (v2, confidence 4/4)
->All tracks accurately ripped.
All Tracks
Album gain : -7.70 dB
Peak : 0.999298
Statistics
Read error : 0
Jitter error (maybe fixed) : 0
Retry sector count : 0
Damaged sector count : 0
Track 01
Filename : /Users/elysofly/Music/XLD Rips/01 Erimaj - Unrest (Journey To The Land Of Milk & Honey).flac
Pre-gap length : 00:02:00
Track gain : -8.32 dB
Peak : 0.999237
CRC32 hash (test run) : 1E7600C1
CRC32 hash : 1E7600C1
CRC32 hash (skip zero) : 5594F158
AccurateRip v1 signature : AB784D6D
AccurateRip v2 signature : 0560BE59
->Accurately ripped (v2, confidence 4/4)
Statistics
Read error : 0
Jitter error (maybe fixed) : 0
Retry sector count : 0
Damaged sector count : 0
Track 02
Filename : /Users/elysofly/Music/XLD Rips/02 Erimaj - Black Super Hero Theme Song.flac
Track gain : -8.27 dB
Peak : 0.999268
CRC32 hash (test run) : C67D23B4
CRC32 hash : C67D23B4
CRC32 hash (skip zero) : 674CBCE5
AccurateRip v1 signature : 73875862
AccurateRip v2 signature : CC5578DE
->Accurately ripped (v2, confidence 4/4)
Statistics
Read error : 0
Jitter error (maybe fixed) : 0
Retry sector count : 0
Damaged sector count : 0
Track 03
Filename : /Users/elysofly/Music/XLD Rips/03 Erimaj - This Night, This Song.flac
Track gain : -7.79 dB
Peak : 0.999298
CRC32 hash (test run) : 7A1B1233
CRC32 hash : 7A1B1233
CRC32 hash (skip zero) : 6BB95B0D
AccurateRip v1 signature : 3ED13952
AccurateRip v2 signature : FC175F8D
->Accurately ripped (v2, confidence 4/4)
Statistics
Read error : 0
Jitter error (maybe fixed) : 0
Retry sector count : 0
Damaged sector count : 0
Track 04
Filename : /Users/elysofly/Music/XLD Rips/04 Erimaj - The Day The Sun Rose Twice.flac
Track gain : -7.85 dB
Peak : 0.999237
CRC32 hash (test run) : C361B161
CRC32 hash : C361B161
CRC32 hash (skip zero) : E8020105
AccurateRip v1 signature : 4B43056D
AccurateRip v2 signature : 169689AB
->Accurately ripped (v2, confidence 4/4)
Statistics
Read error : 0
Jitter error (maybe fixed) : 0
Retry sector count : 0
Damaged sector count : 0
Track 05
Filename : /Users/elysofly/Music/XLD Rips/05 Erimaj - Nothing Like This.flac
Track gain : -7.43 dB
Peak : 0.999298
CRC32 hash (test run) : 79205D53
CRC32 hash : 79205D53
CRC32 hash (skip zero) : 4F71C44E
AccurateRip v1 signature : 952762FD
AccurateRip v2 signature : EAD0ED32
->Accurately ripped (v2, confidence 4/4)
Statistics
Read error : 0
Jitter error (maybe fixed) : 0
Retry sector count : 0
Damaged sector count : 0
Track 06
Filename : /Users/elysofly/Music/XLD Rips/06 Erimaj - Plants.flac
Track gain : -6.26 dB
Peak : 0.999268
CRC32 hash (test run) : F9B8B72C
CRC32 hash : F9B8B72C
CRC32 hash (skip zero) : 55137800
AccurateRip v1 signature : 56DFCC4D
AccurateRip v2 signature : 68874245
->Accurately ripped (v2, confidence 4/4)
Statistics
Read error : 0
Jitter error (maybe fixed) : 0
Retry sector count : 0
Damaged sector count : 0
Track 07
Filename : /Users/elysofly/Music/XLD Rips/07 Erimaj - Conflict Of A Man.flac
Track gain : -6.37 dB
Peak : 0.999268
CRC32 hash (test run) : 1F5F0DC6
CRC32 hash : 1F5F0DC6
CRC32 hash (skip zero) : D43B58F9
AccurateRip v1 signature : 12FEA61B
AccurateRip v2 signature : E63D808B
->Accurately ripped (v2, confidence 4/4)
Statistics
Read error : 0
Jitter error (maybe fixed) : 0
Retry sector count : 0
Damaged sector count : 0
Track 08
Filename : /Users/elysofly/Music/XLD Rips/08 Erimaj - Social Life.flac
Track gain : -7.55 dB
Peak : 0.999237
CRC32 hash (test run) : C56D6EB2
CRC32 hash : C56D6EB2
CRC32 hash (skip zero) : FBF7EF63
AccurateRip v1 signature : 2DF1BAFF
AccurateRip v2 signature : 45BF7AB3
->Accurately ripped (v2, confidence 4/4)
Statistics
Read error : 0
Jitter error (maybe fixed) : 0
Retry sector count : 0
Damaged sector count : 0
Track 09
Filename : /Users/elysofly/Music/XLD Rips/09 Erimaj - Choosing Sides.flac
Track gain : -7.35 dB
Peak : 0.999268
CRC32 hash (test run) : B289D16A
CRC32 hash : B289D16A
CRC32 hash (skip zero) : 6E84F2A3
AccurateRip v1 signature : B12B79A1
AccurateRip v2 signature : 1DBAC6F9
->Accurately ripped (v2, confidence 4/4)
Statistics
Read error : 0
Jitter error (maybe fixed) : 0
Retry sector count : 0
Damaged sector count : 0
No errors occurred
End of status report
-----BEGIN XLD SIGNATURE-----
nq_yCJM5HRp65ME_yxdnr7iaUClqgcaLVJuKKjGw1fZNaAq6SlRFl7jh4PPUFfNTRoe9iOAcYoy.ePcriOByvXskkgvHhnKNezQ9uIy
-----END XLD SIGNATURE-----
 
Содержание индексной карты (.CUE)
TITLE "Conflict of a Man"
PERFORMER "ERIMAJ"
REM GENRE "Jazz"
REM DATE "2014"
REM DISCID 790BBA09
REM REPLAYGAIN_ALBUM_GAIN -7.70 dB
REM REPLAYGAIN_ALBUM_PEAK 0.999298
FILE "01 - Unrest (Journey to the Land of Milk & Honey).flac" WAVE
TRACK 01 AUDIO
TITLE "Unrest (Journey to the Land of Milk & Honey)"
REM REPLAYGAIN_TRACK_GAIN -8.32 dB
REM REPLAYGAIN_TRACK_PEAK 0.999237
INDEX 01 00:00:00
FILE "02 - Black Super Hero Theme Song.flac" WAVE
TRACK 02 AUDIO
TITLE "Black Super Hero Theme Song"
REM REPLAYGAIN_TRACK_GAIN -8.27 dB
REM REPLAYGAIN_TRACK_PEAK 0.999268
INDEX 01 00:00:00
FILE "03 - This Night, This Song.flac" WAVE
TRACK 03 AUDIO
TITLE "This Night, This Song"
REM REPLAYGAIN_TRACK_GAIN -7.79 dB
REM REPLAYGAIN_TRACK_PEAK 0.999298
INDEX 01 00:00:00
FILE "04 - The Day the Sun Rose Twice.flac" WAVE
TRACK 04 AUDIO
TITLE "The Day the Sun Rose Twice"
REM REPLAYGAIN_TRACK_GAIN -7.85 dB
REM REPLAYGAIN_TRACK_PEAK 0.999237
INDEX 01 00:00:00
FILE "05 - Nothing Like This.flac" WAVE
TRACK 05 AUDIO
TITLE "Nothing Like This"
REM REPLAYGAIN_TRACK_GAIN -7.43 dB
REM REPLAYGAIN_TRACK_PEAK 0.999298
INDEX 01 00:00:00
FILE "06 - Plants.flac" WAVE
TRACK 06 AUDIO
TITLE "Plants"
REM REPLAYGAIN_TRACK_GAIN -6.26 dB
REM REPLAYGAIN_TRACK_PEAK 0.999268
INDEX 01 00:00:00
FILE "07 - Conflict of a Man.flac" WAVE
TRACK 07 AUDIO
TITLE "Conflict of a Man"
REM REPLAYGAIN_TRACK_GAIN -6.37 dB
REM REPLAYGAIN_TRACK_PEAK 0.999268
INDEX 01 00:00:00
FILE "08 - Social Life.flac" WAVE
TRACK 08 AUDIO
TITLE "Social Life"
REM REPLAYGAIN_TRACK_GAIN -7.55 dB
REM REPLAYGAIN_TRACK_PEAK 0.999237
INDEX 01 00:00:00
FILE "09 - Choosing Sides.flac" WAVE
TRACK 09 AUDIO
TITLE "Choosing Sides"
REM REPLAYGAIN_TRACK_GAIN -7.35 dB
REM REPLAYGAIN_TRACK_PEAK 0.999268
INDEX 01 00:00:00
 
Отчет CUETools
[CUETools log; Date: 16.07.2016 12:30:14; Version: 2.1.5]
[CTDB TOCID: 2wubMAuzLaHTJdndNE6w9P7V_pc-] found.
Track | CTDB Status
1 | (4/4) Accurately ripped
2 | (4/4) Accurately ripped
3 | (4/4) Accurately ripped
4 | (4/4) Accurately ripped
5 | (4/4) Accurately ripped
6 | (4/4) Accurately ripped
7 | (4/4) Accurately ripped
8 | (4/4) Accurately ripped
9 | (4/4) Accurately ripped
[AccurateRip ID: 00115e9d-007f2150-790bba09] found.
Track [ CRC | V2 ] Status
01 [ab784d6d|0560be59] (0+4/4) Accurately ripped
02 [73875862|cc5578de] (0+4/4) Accurately ripped
03 [3ed13952|fc175f8d] (0+4/4) Accurately ripped
04 [4b43056d|169689ab] (0+4/4) Accurately ripped
05 [952762fd|ead0ed32] (0+4/4) Accurately ripped
06 [56dfcc4d|68874245] (0+4/4) Accurately ripped
07 [12fea61b|e63d808b] (0+4/4) Accurately ripped
08 [2df1baff|45bf7ab3] (0+4/4) Accurately ripped
09 [b12b79a1|1dbac6f9] (0+4/4) Accurately ripped
Track Peak [ CRC32 ] [W/O NULL]
-- 99,9 [104D7B36] [36246552]
01 99,9 [1E7600C1] [5594F158]
02 99,9 [C67D23B4] [674CBCE5]
03 99,9 [7A1B1233] [6BB95B0D]
04 99,9 [C361B161] [E8020105]
05 99,9 [79205D53] [4F71C44E]
06 99,9 [F9B8B72C] [55137800]
07 99,9 [1F5F0DC6] [D43B58F9]
08 99,9 [C56D6EB2] [FBF7EF63]
09 99,9 [B289D16A] [6E84F2A3]
 
Об исполнителе (группе)
Jamire Williams, the rare drummer on the jazz scene these days who’s heavily invested in leading his own band, says that he plays “social music.” This makes sense—every band is a social unit, and he’s clearly concerned with societal problems. But the 28-year-old’s group, ERIMAJ, goes in the opposite direction: It’s antisocial music, or at least reticent. This puts it on relatively untrodden terrain in contemporary jazz, and gives it the bite of something fresh.
If you’ve heard much of Frank Ocean, the laconically ruminative singer who’s trying to teach R&B fans how to see deeper into their own hearts by staring at their shoes, then you’re already on your way toward figuring out what ERIMAJ is all about. The band’s recently released debut album, Conflict of a Man (Don’t Cry), which features yearning vocals from Chris Turner on most tracks, scans like a diary full of regretful sentences that never find their way to completion. More than anything, you hear the sound of someone scraping for meaning in a world where digitization and corporatization leap forward unbounded. What suffers in this environment, among much else, is the wellspring of spirit that ought to feed art.
“For me, it’s definitely a spiritual thing, the battle between being true to yourself and artists just conforming to the mainstream,” says Williams, a Houston native who moved to New York City in 2002 and has since worked in bands led by Jacky Terrasson, Dr. Lonnie Smith, David Weiss, Robert Glasper and Christian Scott. “A lot of stuff in our generation is just corrupt, man. … That’s the conflict. ‘Choosing Sides,’ the last song on the album, is the apex of it: What are you going to do? Are you going to choose to keep being creative or are you just going to conform to what the masses want you to do?” With that much dogma behind it, Conflict of a Man might reek of gravitas; you can imagine it declaring, loud and strident, “I am pure.” But with ERIMAJ, you get a man who’s earnestly questioning his own ability to stand up when forces outweigh him. He’s also losing confidence in the people surrounding him.
Good thing, then, that Williams has put together an ensemble that inspires trust. ERIMAJ is a loose collective, and Williams builds different assemblies for different gigs. On the album, the core group includes Williams on drums, Turner on vocals, Corey King on trombone, Jason Moran on piano and keyboards, Matthew Stevens on guitar and Vicente Archer on bass. Conflict of a Man’s opening tune, “Unrest (Journey to the Land of Milk & Honey),” starts with a grave and almost lieder-like Rhodes passage from Moran—soft tones with heavy burdens—and you find yourself paying attention to each note as it lands. (The opening strain sounds unmistakably like the beginning of “Everything in Its Right Place,” which kicks off Radiohead’s seminal Kid A. It makes you realize that all the clearest points of reference for ERIMAJ—Radiohead in the 1990s; J Dilla; Jack DeJohnette’s records in the ’60s and ’70s—were themselves trailblazers.)
As “Unrest” unravels, Williams and Stevens and Archer, all on acoustic instruments, wander into the picture. Over the course of three and a half quick minutes, they build a quivery rubato landscape. Nothing else on Conflict of a Man is quite as mercurial, but the eeriness and doubt that “Unrest” establishes never leave over the course of the record’s 50 minutes, even when Williams wields punchy beats that could hold their own on a Maxwell record.
Both on record and live—two very different things for ERIMAJ—the group’s cohesiveness and distinctiveness are enough to make Williams arguably the most promising drummer-bandleader to emerge since Brian Blade. He notes that for most drummers, bandleading is “kind of like an afterthought. … People are just putting out records to put them out.” He adds, “I’ve always had a strategy and a goal that I wanted to get to.”
Performing at the Charlie Parker Jazz Festival in Harlem in August, just a few days after the release of Conflict of a Man, Williams assembled a four-piece iteration of ERIMAJ, without Turner. Moran wasn’t playing, either, but he’d come to the festival as a spectator, so he sat in on a reworking of Fats Waller’s “Ain’t Misbehavin’.” He played a piquant solo, and afterward the band held the residue on its tongue; all eyes turned to Stevens, but he didn’t go in for a solo. Instead, he dug deep for a few wobbling tones in the low register and let the whole band keep stirring. After about two minutes of this the tune ended, still cathartic and unresolved.
At another point in the set, Williams called “This Night, This Song,” Tony Williams’ spectral tale of unrequited love in 11. It seemed like a bold move, considering it’s among Conflict’s most vocals-dominated tunes. Unconcerned, Williams pulled his vocal mic up close and sang the whole thing as he played, in a high tenor not unlike Tony Williams’ candid singing on the 1971 recording. He wasn’t always on key, but he was clearly happy to be holding the spotlight in unmistakable terms. This was the drummer’s band; no matter who’d written them or who sang on the record, or how much conflict was wrapped up inside them, those words were coming from him.
-- Giovanni Russonello
 
Состав
Jamire Williams - drums, additional & background vocals (#5,8)
Corey King - trombone, background vocals (#8)
Chris Turner - lead vocals
Jason Moran - piano, Wurlitzer, Fender Rhodes
Matthew Stevens - acoustic & electric guitar
John Ellis - tenor saxophone, bass clarinet
Vicente Archer - acoustic & electric bass (#1-7,9)
Burniss Earl Travis - electric bass (#8)
Tomoko Omura - violin (#7)
Maria Jeffers - cello (#7)
Produced by Jamire Williams.
Recorded and Mixed by Andy Taub at Brooklyn Recordings.
Mastered by Sean Marquand.
Artwork by Reuben Levi.
Приватный:
Нет (DHT включён)
Размер:
340.06 Мб (356,582,593 байт) » файлов: 16
Участники:
0 раздают, 0 качают (0 участников всего)
Внешние участники:
2 раздают, 1 качают (3 участников всего) [ Обновить ]
Есть вопросы - пишите личное сообщение пользователю M0p94ok.
11:11
103
Нет комментариев. Ваш будет первым!