Поиск

(Jazz-Funk) [CD] Jiro Inagaki & His Soul Media - Head Rock - 1970 (2014 Japan Edition), FLAC (image+.cue), lossless

(Jazz-Funk) [CD] Jiro Inagaki & His Soul Media - Head Rock - 1970 (2014 Japan Edition), FLAC (image+.cue), lossless
Треклист:
Jiro Inagaki & His Soul Media - Head Rock
Жанр: Jazz-Funk
Носитель: CD
Страна-производитель диска (релиза): Япония
Год издания: 2014
Издатель (лейбл): Columbia (Dig Deep Columbia)
Номер по каталогу: COCB-54113
Аудиокодек: FLAC (*.flac)
Тип рипа: image+.cue
Битрейт аудио: lossless
Продолжительность: 40:05
Источник (релизер): диск из моей коллекции
Наличие сканов в содержимом раздачи: да
Треклист:
01. The Vamp (Galper) - 5:23
02. Twenty One (Kawasaki) - 5:33
03. Spoonful (Dixon) - 9:19
04. Back to Rack (Sato) - 3:31
05. High Jack (Imada) - 4:16
06. The Ground for Peace (Arakawa) - 7:43
07. Head Rock (Inagaki) - 4:21
Состав:
Jiro Inagaki - tenor saxophone
Tetsuo Fushimi - trumpet
Ryo Kawasaki - guitar
Masaru Imada - organ
Yasuo Arakawa - bass
Sadakazu Tabata - drums
Recorded at Tokyo Studio Center on August 6-7, 1970.
 
Лог создания рипа
Exact Audio Copy V1.1 from 23. June 2015
EAC extraction logfile from 17. July 2016, 23:03
Jiro Inagaki / Head Rock
Used drive : ASUS DRW-24B1LT Adapter: 5 ID: 1
Read mode : Secure
Utilize accurate stream : Yes
Defeat audio cache : Yes
Make use of C2 pointers : No
Read offset correction : 6
Overread into Lead-In and Lead-Out : No
Fill up missing offset samples with silence : Yes
Delete leading and trailing silent blocks : No
Null samples used in CRC calculations : Yes
Used interface : Installed external ASPI interface
Used output format : User Defined Encoder
Selected bitrate : 768 kBit/s
Quality : High
Add ID3 tag : No
Command line compressor : C:\Program Files\Exact Audio Copy\Flac\flac.exe
Additional command line options : -8 -V -T "ARTIST=%artist%" -T "TITLE=%title%" -T "ALBUM=%albumtitle%" -T "DATE=%year%" -T "TRACKNUMBER=%tracknr%" -T "TOTALTRACKS=%numtracks%" -T "GENRE=%genre%" -T "ALBUMARTIST=%albumartist%" -T "ALBUM ARTIST=%albumartist%" -T "COMMENT=EAC Secure Mode, Test & Copy, AccurateRip, FLAC -8" %source%
TOC of the extracted CD
Track | Start | Length | Start sector | End sector
---------------------------------------------------------
1 | 0:00.00 | 5:22.62 | 0 | 24211
2 | 5:22.62 | 5:33.08 | 24212 | 49194
3 | 10:55.70 | 9:18.56 | 49195 | 91100
4 | 20:14.51 | 3:30.55 | 91101 | 106905
5 | 23:45.31 | 4:15.74 | 106906 | 126104
6 | 28:01.30 | 7:43.31 | 126105 | 160860
7 | 35:44.61 | 4:20.40 | 160861 | 180400
Range status and errors
Selected range
Filename F:\audio\Jiro Inagaki - Head Rock.wav
Peak level 100.0 %
Extraction speed 5.1 X
Range quality 99.9 %
Test CRC 0EAA8C13
Copy CRC 0EAA8C13
Copy OK
No errors occurred
AccurateRip summary
Track 1 accurately ripped (confidence 2) [1B34C2EE] (AR v2)
Track 2 accurately ripped (confidence 2) [7B1C4AB1] (AR v2)
Track 3 accurately ripped (confidence 2) [FDBA8E73] (AR v2)
Track 4 accurately ripped (confidence 2) [C0CFA799] (AR v2)
Track 5 accurately ripped (confidence 2) [127146DF] (AR v2)
Track 6 accurately ripped (confidence 2) [7126A3F7] (AR v2)
Track 7 accurately ripped (confidence 2) [AF8DB2D6] (AR v2)
All tracks accurately ripped
End of status report
---- CUETools DB Plugin V2.1.6
[CTDB TOCID: CEuhqqmuXeo6cPcAH4kkht5yOuA-] found
Submit result: CEuhqqmuXeo6cPcAH4kkht5yOuA- has been confirmed
Track | CTDB Status
1 | (1/1) Accurately ripped
2 | (1/1) Accurately ripped
3 | (1/1) Accurately ripped
4 | (1/1) Accurately ripped
5 | (1/1) Accurately ripped
6 | (1/1) Accurately ripped
7 | (1/1) Accurately ripped
==== Log checksum D0F6E1B0DDEF792E220FE52DD8873580026953DB08440AD392C71D599667CFF7 ====
 
Содержание индексной карты (.CUE)
REM GENRE Jazz
REM DATE 1970
REM DISCID 54096507
REM COMMENT "ExactAudioCopy v1.1"
PERFORMER "Jiro Inagaki"
TITLE "Head Rock"
FILE "Jiro Inagaki - Head Rock.wav" WAVE
TRACK 01 AUDIO
TITLE "The Vamp"
PERFORMER "Jiro Inagaki"
INDEX 01 00:00:00
TRACK 02 AUDIO
TITLE "Twenty One"
PERFORMER "Jiro Inagaki"
INDEX 01 05:22:62
TRACK 03 AUDIO
TITLE "Spoonful"
PERFORMER "Jiro Inagaki"
INDEX 01 10:55:70
TRACK 04 AUDIO
TITLE "Back to Rack"
PERFORMER "Jiro Inagaki"
INDEX 00 20:13:13
INDEX 01 20:14:51
TRACK 05 AUDIO
TITLE "High Jack"
PERFORMER "Jiro Inagaki"
INDEX 01 23:45:31
TRACK 06 AUDIO
TITLE "The Ground for Peace"
PERFORMER "Jiro Inagaki"
INDEX 01 28:01:30
TRACK 07 AUDIO
TITLE "Head Rock"
PERFORMER "Jiro Inagaki"
INDEX 01 35:44:61
 
Отчет CUETools
[CUETools log; Date: 17.07.2016 23:06:46; Version: 2.1.5]
[CTDB TOCID: CEuhqqmuXeo6cPcAH4kkht5yOuA-] found.
Track | CTDB Status
1 | (2/2) Accurately ripped
2 | (2/2) Accurately ripped
3 | (2/2) Accurately ripped
4 | (2/2) Accurately ripped
5 | (2/2) Accurately ripped
6 | (2/2) Accurately ripped
7 | (2/2) Accurately ripped
[AccurateRip ID: 000b45dd-004374c9-54096507] found.
Track [ CRC | V2 ] Status
01 [62762bdc|1b34c2ee] (0+2/2) Accurately ripped
02 [a7e8b01b|7b1c4ab1] (0+2/2) Accurately ripped
03 [5b99a50e|fdba8e73] (0+2/2) Accurately ripped
04 [0b5d9ad5|c0cfa799] (0+2/2) Accurately ripped
05 [a9509b01|127146df] (0+2/2) Accurately ripped
06 [0de2ca61|7126a3f7] (0+2/2) Accurately ripped
07 [dffbfdaa|af8db2d6] (0+2/2) Accurately ripped
Track Peak [ CRC32 ] [W/O NULL] [ LOG ]
-- 100,0 [0EAA8C13] [50E275C6] CRC32
01 96,9 [666B5840] [E35B8C60]
02 95,4 [8B2FB2B6] [7E428ECE]
03 96,7 [276F4DBC] [8015680A]
04 98,8 [89E2E8BA] [3C23B48A]
05 100,0 [610EAF86] [DB3BAFC6]
06 100,0 [07577F3D] [11602B89]
07 97,0 [EEC1FEA6] [B1C87100]
 
Об альбоме (сборнике)
Ultimate & most wanted japanese rare groove recorded by the saxophonist Jiro Inagaki, one of the main actor of the Japanese Jazz Rock & Progressive scene. Recorded in 1969 and released under the famous Takt Jazz Series from Nippon Columbia, Head Rock includes psychedelic guitar effects, great drum breaks, acid & electronic organ sounds, performed by The Soul Media, featuring some future japanese jazz great names, such as Ryo Kawasaki (in his first professional appearance), Yasuo Arakawa, Masaru Imada or Tetsuo Fushimi. Titles includes cover & original songs from Hal Galper (The Vamp), and Willie Dixon (an amazing version of Spoonful), five composed by Ryo Kawasaki (Twenty One), Masaru Imada (High Jack), Yasuo Arakawa (The Ground For Peace) and Jiro (Head Rock). All tracks arranged by Jiro Inagaki.
(Jazz-Funk) [CD] Jiro Inagaki & His Soul Media - Head Rock - 1970 (2007 Japan Edition), FLAC (tracks+.cue), lossless
Приватный:
Нет (DHT включён)
Размер:
297.16 Мб (311,599,415 байт) » файлов: 14
Участники:
0 раздают, 0 качают (0 участников всего)
Внешние участники:
5 раздают, 2 качают (7 участников всего) [ Обновить ]
No seeders - write a personal message to user M0p94ok. Нет сидеров - пишите личное сообщение пользователю M0p94ok.
11:12
102
Нет комментариев. Ваш будет первым!