Поиск

(Jazz-Funk) [CD] Masahiko Sato (Satoh), Jiro Inagaki & His Big Soul Media - Bridge over Troubled Water - 1971 (2014 Japan Edition), FLAC (image+.cue), lossless

(Jazz-Funk) [CD] Masahiko Sato (Satoh), Jiro Inagaki & His Big Soul Media - Bridge over Troubled Water - 1971 (2014 Japan Edition), FLAC (image+.cue), lossless
Треклист:
Masahiko Sato, Jiro Inagaki & His Big Soul Media - Bridge over Troubled Water
Жанр: Jazz-Funk
Носитель: CD
Страна-производитель диска (релиза): Япония
Год издания: 2014
Издатель (лейбл): Columbia (Dig Deep Columbia)
Номер по каталогу: COCB-54114
Аудиокодек: FLAC (*.flac)
Тип рипа: image+.cue
Битрейт аудио: lossless
Продолжительность: 38:34
Источник (релизер): диск из моей коллекции
Наличие сканов в содержимом раздачи: да
Треклист:
01. Bridge over Troubled Water (Simon) - 5:49
02. Love and Peace (Adams) - 5:41
03. Somethin' Goin' On (Kooper) - 5:59
04. Guru (Sato) - 6:25
05. Serenity (Sato) - 7:59
06. Sniper's Snooze (Sato) - 6:40
Состав:
Jiro Inagaki - tenor saxophone
Ryo Kawasaki - guitar
Yasuo Arakawa - bass
Shunzo Ohno - trumpet
Tadataka Nakazawa - trombone
Tadayuki Harada - baritone saxophone
Takeshi Inomata - drums
Masahiko Satoh - piano, electric piano, arranger
Recorded on April 25, 1971.
 
Лог создания рипа
Exact Audio Copy V1.1 from 23. June 2015
EAC extraction logfile from 18. July 2016, 1:44
Masahiko Sato & Jiro Inagaki / Bridge over Troubled Water
Used drive : ASUS DRW-24B1LT Adapter: 5 ID: 1
Read mode : Secure
Utilize accurate stream : Yes
Defeat audio cache : Yes
Make use of C2 pointers : No
Read offset correction : 6
Overread into Lead-In and Lead-Out : No
Fill up missing offset samples with silence : Yes
Delete leading and trailing silent blocks : No
Null samples used in CRC calculations : Yes
Used interface : Installed external ASPI interface
Used output format : User Defined Encoder
Selected bitrate : 768 kBit/s
Quality : High
Add ID3 tag : No
Command line compressor : C:\Program Files\Exact Audio Copy\Flac\flac.exe
Additional command line options : -8 -V -T "ARTIST=%artist%" -T "TITLE=%title%" -T "ALBUM=%albumtitle%" -T "DATE=%year%" -T "TRACKNUMBER=%tracknr%" -T "TOTALTRACKS=%numtracks%" -T "GENRE=%genre%" -T "ALBUMARTIST=%albumartist%" -T "ALBUM ARTIST=%albumartist%" -T "COMMENT=EAC Secure Mode, Test & Copy, AccurateRip, FLAC -8" %source%
TOC of the extracted CD
Track | Start | Length | Start sector | End sector
---------------------------------------------------------
1 | 0:00.00 | 5:49.20 | 0 | 26194
2 | 5:49.20 | 5:41.30 | 26195 | 51799
3 | 11:30.50 | 5:59.33 | 51800 | 78757
4 | 17:30.08 | 6:24.50 | 78758 | 107607
5 | 23:54.58 | 7:58.61 | 107608 | 143518
6 | 31:53.44 | 6:39.74 | 143519 | 173517
Range status and errors
Selected range
Filename F:\audio\Masahiko Sato & Jiro Inagaki - Bridge over Troubled Water.wav
Peak level 99.0 %
Extraction speed 5.1 X
Range quality 100.0 %
Test CRC 3075E704
Copy CRC 3075E704
Copy OK
No errors occurred
AccurateRip summary
Track 1 not present in database
Track 2 not present in database
Track 3 not present in database
Track 4 not present in database
Track 5 not present in database
Track 6 not present in database
None of the tracks are present in the AccurateRip database
End of status report
---- CUETools DB Plugin V2.1.6
[CTDB TOCID: vpHAgaprCiesa6pbt7Ow9frt69E-] found
Submit result: vpHAgaprCiesa6pbt7Ow9frt69E- has been confirmed
Track | CTDB Status
1 | (1/1) Accurately ripped
2 | (1/1) Accurately ripped
3 | (1/1) Accurately ripped
4 | (1/1) Accurately ripped
5 | (1/1) Accurately ripped
6 | (1/1) Accurately ripped
==== Log checksum 9C99FEB0F6C49B6313BA467C872A8683C44611D77247A473363DA94B26385B26 ====
 
Содержание индексной карты (.CUE)
REM GENRE Jazz
REM DATE 1971
REM DISCID 42090906
REM COMMENT "ExactAudioCopy v1.1"
PERFORMER "Masahiko Sato & Jiro Inagaki"
TITLE "Bridge over Troubled Water"
FILE "Masahiko Sato & Jiro Inagaki - Bridge over Troubled Water.wav" WAVE
TRACK 01 AUDIO
TITLE "Bridge over Troubled Water"
PERFORMER "Masahiko Sato & Jiro Inagaki"
INDEX 01 00:00:00
TRACK 02 AUDIO
TITLE "Love and Peace"
PERFORMER "Masahiko Sato & Jiro Inagaki"
INDEX 00 05:45:41
INDEX 01 05:49:20
TRACK 03 AUDIO
TITLE "Somethin' Goin' On"
PERFORMER "Masahiko Sato & Jiro Inagaki"
INDEX 00 11:27:68
INDEX 01 11:30:50
TRACK 04 AUDIO
TITLE "Guru"
PERFORMER "Masahiko Sato & Jiro Inagaki"
INDEX 00 17:27:23
INDEX 01 17:30:08
TRACK 05 AUDIO
TITLE "Serenity"
PERFORMER "Masahiko Sato & Jiro Inagaki"
INDEX 00 23:52:04
INDEX 01 23:54:58
TRACK 06 AUDIO
TITLE "Sniper's Snooze"
PERFORMER "Masahiko Sato & Jiro Inagaki"
INDEX 00 31:51:04
INDEX 01 31:53:44
 
Отчет CUETools
[CUETools log; Date: 18.07.2016 17:31:46; Version: 2.1.5]
[CTDB TOCID: vpHAgaprCiesa6pbt7Ow9frt69E-] found.
Track | CTDB Status
1 | (2/2) Accurately ripped
2 | (2/2) Accurately ripped
3 | (2/2) Accurately ripped
4 | (2/2) Accurately ripped
5 | (2/2) Accurately ripped
6 | (2/2) Accurately ripped
[AccurateRip ID: 0008df16-002fdc5b-42090906] disk not present in database.
Track Peak [ CRC32 ] [W/O NULL] [ LOG ]
-- 99,0 [3075E704] [F41A6588] CRC32
01 97,9 [A5106AFB] [6EC20B7A]
02 99,0 [FBECEEFD] [F813D552]
03 99,0 [315447FC] [F4569787]
04 99,0 [ADCBD2E8] [9E8A8105]
05 99,0 [FA8881AA] [61B8AADB]
06 99,0 [58D0DA8F] [CDB2C079]
 
Об альбоме (сборнике)
Masahiko Sato with Jiro Inagaki & His Big Soul Media (1971) Bridge Over Troubled Water. Достаточно интересная работа, где известный джазовый пианист-экспериментатор Масахико Сато объединил свои усилия с джазовым коллективом Big Soul Media под руководством саксофониста Дзиро Инагаки, которое, в свою очередь, являлось расширенной за счет медной секции версией группы Jiro Inagaki & His Soul Media. Альбом выстроен в духе, близком к инструментальной версии Blood, Sweat & Tears – не случайно здесь даже присутствует композиция Somethin' Goin' On с дебютного альбома этой американской группы. Вообще, пластинка делится не просто на две стороны, но и на две части по авторству материала: первая сторона – каверы, вторая – свои вещи. На первой, помимо уже указанного номера Эла Купера, есть еще заглавный трек (он открывает диск, но мне показался не слишком интересным – возможно, по причине своей избитости), а также Love And Peace Артура Адамса, записанный в 1969 году группой The Jazz Crusaders. Вся вторая сторона занята также тремя треками, но на этот раз все они принадлежат Масахико Сато. В целом неплохой (хотя и не идеальный) баланс между брасс-роком, джаз-роком и собственно джазом: есть и весьма консервативные фрагменты со свингующими духовиками, есть более роковые, где лидерство принадлежит гитаре Рё Кавасаки. Довольно много действительно хороших сольных партий, среди которых стоит отметить гитару в Somethin' Goin' On, трубу в Guru, фортепиано в Serenity – впрочем, Сато на виду и в других номерах, а также продолжительный бенефис барабанщика (на этот раз за установкой вместо Садакадзу Табаты восседает не менее заслуженный Такеси Иномата) в заключительной Sniper's Snooze. Очень неплохо!
-- daydreamer
The Jazz Rock anthem by the revolutionary pianist Masahiko Sato featuring Jiro Inagaki & his progressive Jazz Rock Band, the Big Soul Media where evolve Ryo Kawasaki, Yasuo Arakawa, Tadayuki Harada, Shunzo Ohno & Takeshi Inomata from the Sound limited. This versatile and prolific pianist has left his mark on the japanese jazz history thanks to several experimental projects & free jazz albums, was arranger for japanese & international artists, has also composed music for various television programs, films & animated movies whose the best known are Miyazaki's Panda Kopanda (1972) and the cult Belladonna (1973). Masahiko Sato started as professional musician in the Masaaki Fujita Quintet (1961) and joined the Toshiyuki Miyama's New Herd Big Band in the late sixties. In 1966, he entered the Berklee College of Music in order to become arranger and formed the Masahiko Sato Trio with the bassist Yasuo Arakawa & drummer Masahiko Togashi (1968-1971), recorded with it the first of three serie discs and won, for the first (Palladium), the Japan Jazz Award in the best debut album category. In 1970, with french violinist Jean-Luc Ponty, he released Astrorama (feat. Niels-Henning Ørsted Pedersen, Yoshiaki Masuo & Motohiko Hino) which paving the way for future international collaborations in considerable recordings as composer & arranger, inter alia, for Nancy Wilson, Wayne Shorter, Roy Haynes, Gary Peacock or Art Farmer, played also with Yohsuke Yamashita, for the singers Yoshiko Gotoh & Hirota Mieko, Motohiko Hino, Anthony Braxton or Hank Jones. In 1971, he formed the Sound Breakers featuring drummer Louis Hayes with whom released the experimental Free/Jazz Fusion album Amalgamation and joined in 1975, the Electro Keyboard Orchestra group alongside Yuji Ohno, Hiromasa Suzuki & Masao Yagi. In the late seventies, he participated with Hiromasa Suzuki, to the Tri Piano project created by Norio Maeda which released Pianic Pianism & Super Tri Piano (both recorded in 1977). Masahiko Satoh plays here in a groovy approach with free improvisations & sophisticated arrangements associated to the psychedelic expressions of Ryo Kawasaki plus the powerful skills of a swinging Inomata (as the great drum solo on Sniper's Snooze), all backed by the Soul Media Big Band led by Jiro Inagaki. Titles include three originals composed by Satoh, the Pop cover Bridge Over Troubled Water from Simon & Garfunkel, the Al Kooper' Somethin Goin On and the Psychedelic Soul tune Love & Peace. All tracks arranged by Masahiko Satoh.
Приватный:
Нет (DHT включён)
Размер:
261.43 Мб (274,130,722 байт) » файлов: 14
Участники:
0 раздают, 0 качают (0 участников всего)
Внешние участники:
3 раздают, 1 качают (4 участников всего) [ Обновить ]
Есть вопросы - пишите личное сообщение пользователю M0p94ok.
11:12
81
Нет комментариев. Ваш будет первым!