Поиск

(Soul, Funk, P.Funk) [CD] Bootsy Collins - Tha Funk Capital Of The World - 2011, FLAC (image+.cue), lossless

(Soul, Funk, P.Funk) [CD] Bootsy Collins - Tha Funk Capital Of The World - 2011, FLAC (image+.cue), lossless
Треклист:
.Bootsy Collins
Tha Funk Capital Of The World
(CD, Album, Unofficial Release, William Earl Collins, Born 26th October 1951,
Cincinnati, Ohio, U.S.A. Earlier on in his career Bootsy famously played in
James Brown's band.Also known as Bootzilla, Casper, Zillatron and Fuzzface.).Жанр: Soul, Funk, P.Funk
Носитель: CD
Страна-производитель диска (релиза): Russia ( ? )
Год издания: 2011
Издатель (лейбл): Mascot Records
Номер по каталогу: M 7310 2
Страна исполнителя (группы): U.S.A.
Аудиокодек: FLAC (*.flac)
Тип рипа: image+.cue
Битрейт аудио: lossless
Продолжительность: 01:19:32
Источник (релизер): stas64
Наличие сканов в содержимом раздачи: да - 600 dpi.
.
.Треклист:
01. Spreading Hope Like Dope (Intro).
02. Hip Hop @ Funk U.
03. Mirror Tell Lies.
04. JB-Still The Man.
05. Freedumb (when-love-becomes-a-threat).
06. After these Messages.
07. Kool Whip.
08. The Real Deal.
09. Don't Take my Funk.
10. If Looks Could Kill.
11. Minds under Construction.
12. Siento Bombo.
13. The Jazz Greats (A Tribute to Jazz).
14. Garry Shider Tribute.
15. Stars Have No Names (they just shine).
16. Chocolate Carmel Angel.
17. Yummy, I Got The Munchies.
 
Booklet





 
Лог создания рипа
Exact Audio Copy V1.1 from 23. June 2015
Отчёт EAC об извлечении, выполненном 11. июля 2016, 0:57
Bootsy Collins / Tha Funk Capital Of The World
Дисковод: PLEXTOR DVDR PX-712A Adapter: 9 ID: 0
Режим чтения : Достоверность
Использование точного потока : Да
Отключение кэша аудио : Да
Использование указателей C2 : Нет
Коррекция смещения при чтении : 30
Способность читать области Lead-in и Lead-out : Нет
Заполнение пропущенных сэмплов тишиной : Да
Удаление блоков с тишиной в начале и конце : Нет
При вычислениях CRC использовались нулевые сэмплы : Да
Интерфейс : Установленный внешний ASPI-интерфейс
Выходной формат : Пользовательский кодировщик
Выбранный битрейт : 128 kBit/s
Качество : Высокий
Добавление ID3-тега : Нет
Утилита сжатия : C:\Program Files\Exact Audio Copy\FLAC\FLAC.EXE
Дополнительные параметры : -V -8 -T "Genre=%genre%" -T "Artist=%artist%" -T "Title=%title%" -T "Album=%albumtitle%" -T "Date=%year%" -T "Tracknumber=%tracknr%" -T "Comment=%comment%" %source%
TOC извлечённого CD
Трек | Старт | Длительность | Начальный сектор | Конечный сектор
---------------------------------------------------------------------
1 | 0:00.00 | 1:46.31 | 0 | 7980
2 | 1:46.31 | 4:10.02 | 7981 | 26732
3 | 5:56.33 | 5:10.51 | 26733 | 50033
4 | 11:07.09 | 4:30.35 | 50034 | 70318
5 | 15:37.44 | 4:05.00 | 70319 | 88693
6 | 19:42.44 | 4:53.35 | 88694 | 110703
7 | 24:36.04 | 4:13.24 | 110704 | 129702
8 | 28:49.28 | 3:54.59 | 129703 | 147311
9 | 32:44.12 | 5:24.34 | 147312 | 171645
10 | 38:08.46 | 4:06.67 | 171646 | 190162
11 | 42:15.38 | 6:37.15 | 190163 | 219952
12 | 48:52.53 | 4:02.42 | 219953 | 238144
13 | 52:55.20 | 3:57.22 | 238145 | 255941
14 | 56:52.42 | 3:29.14 | 255942 | 271630
15 | 60:21.56 | 5:10.18 | 271631 | 294898
16 | 65:31.74 | 6:57.70 | 294899 | 326243
17 | 72:29.69 | 7:02.23 | 326244 | 357916
Характеристики диапазона извлечения и сообщения об ошибках
Выбранный диапазон
Имя файла I:\MOI_RAZDACI\Bootsy Collins 2011\Bootsy.Collins_Tha.Funk.Capital.Of.The.World_2011\Bootsy Collins - Tha Funk Capital Of The World.wav
Пиковый уровень 100.0 %
Скорость извлечения 11.6 X
Качество диапазона 100.0 %
CRC теста 3D0E53ED
CRC копии 3D0E53ED
Копирование... OK
Ошибок не произошло
AccurateRip: сводка
Трек 1 отсутствует в базе данных
Трек 2 отсутствует в базе данных
Трек 3 отсутствует в базе данных
Трек 4 отсутствует в базе данных
Трек 5 отсутствует в базе данных
Трек 6 отсутствует в базе данных
Трек 7 отсутствует в базе данных
Трек 8 отсутствует в базе данных
Трек 9 отсутствует в базе данных
Трек 10 отсутствует в базе данных
Трек 11 отсутствует в базе данных
Трек 12 отсутствует в базе данных
Трек 13 отсутствует в базе данных
Трек 14 отсутствует в базе данных
Трек 15 отсутствует в базе данных
Трек 16 отсутствует в базе данных
Трек 17 отсутствует в базе данных
Ни одного трека нет в базе AccurateRip
Конец отчёта
---- CUETools DB Plugin V2.1.6
[CTDB TOCID: zAfUwWYcT.Z3AR5AXA_yWKNBld8-] found
Submit result: zAfUwWYcT.Z3AR5AXA_yWKNBld8- has been confirmed
Track | CTDB Status
1 | (30/30) Accurately ripped
2 | (30/30) Accurately ripped
3 | (30/30) Accurately ripped
4 | (30/30) Accurately ripped
5 | (30/30) Accurately ripped
6 | (30/30) Accurately ripped
7 | (30/30) Accurately ripped
8 | (30/30) Accurately ripped
9 | (30/30) Accurately ripped
10 | (30/30) Accurately ripped
11 | (30/30) Accurately ripped
12 | (30/30) Accurately ripped
13 | (28/30) Accurately ripped
14 | (29/30) Accurately ripped
15 | (30/30) Accurately ripped
16 | (14/30) Accurately ripped, or (14/30) differs in 12 samples @06:46:42
17 | (30/30) Accurately ripped
If you are sure that your rip contains errors, you can use CUETools to repair it.
==== Контрольная сумма отчёта FBF5F7E654054DA5A36628215B45863C02A6D8BF900AF0E6248FD393E2362244 ====
 
Содержание индексной карты (.CUE)
REM GENRE Funk
REM DATE 2011
REM DISCID 0512A411
REM COMMENT "ExactAudioCopy v1.1"
PERFORMER "Bootsy Collins"
TITLE "Tha Funk Capital Of The World"
FILE "Bootsy Collins - Tha Funk Capital Of The World.flac" WAVE
TRACK 01 AUDIO
TITLE "Spreading Hope Like Dope (Intro)"
PERFORMER "Bootsy Collins"
ISRC NLB931000550
INDEX 01 00:00:00
TRACK 02 AUDIO
TITLE "Hip Hop @ Funk U"
PERFORMER "Bootsy Collins"
ISRC NLB931000551
INDEX 01 01:46:31
TRACK 03 AUDIO
TITLE "Mirror Tell Lies"
PERFORMER "Bootsy Collins"
ISRC NLB931000552
INDEX 01 05:56:33
TRACK 04 AUDIO
TITLE "JB-Still The Man"
PERFORMER "Bootsy Collins"
ISRC NLB931000553
INDEX 01 11:07:09
TRACK 05 AUDIO
TITLE "Freedumb (when-love-becomes-a-threat)"
PERFORMER "Bootsy Collins"
ISRC NLB931000554
INDEX 01 15:37:44
TRACK 06 AUDIO
TITLE "After these Messages"
PERFORMER "Bootsy Collins"
ISRC NLB931000555
INDEX 01 19:42:44
TRACK 07 AUDIO
TITLE "Kool Whip"
PERFORMER "Bootsy Collins"
ISRC NLB931000556
INDEX 01 24:36:04
TRACK 08 AUDIO
TITLE "The Real Deal"
PERFORMER "Bootsy Collins"
ISRC NLB931000557
INDEX 01 28:49:28
TRACK 09 AUDIO
TITLE "Don't Take my Funk"
PERFORMER "Bootsy Collins"
ISRC NLB931000558
INDEX 01 32:44:12
TRACK 10 AUDIO
TITLE "If Looks Could Kill"
PERFORMER "Bootsy Collins"
ISRC NLB931000559
INDEX 01 38:08:46
TRACK 11 AUDIO
TITLE "Minds under Construction"
PERFORMER "Bootsy Collins"
ISRC NLB931000560
INDEX 01 42:15:38
TRACK 12 AUDIO
TITLE "Siento Bombo"
PERFORMER "Bootsy Collins"
ISRC NLB931000561
INDEX 01 48:52:53
TRACK 13 AUDIO
TITLE "The Jazz Greats (A Tribute to Jazz)"
PERFORMER "Bootsy Collins"
ISRC NLB931000562
INDEX 00 52:55:16
INDEX 01 52:55:20
TRACK 14 AUDIO
TITLE "Garry Shider Tribute"
PERFORMER "Bootsy Collins"
ISRC NLB931000563
INDEX 01 56:52:42
TRACK 15 AUDIO
TITLE "Stars Have No Names (they just shine)"
PERFORMER "Bootsy Collins"
ISRC NLB931000564
INDEX 01 60:21:56
TRACK 16 AUDIO
TITLE "Chocolate Carmel Angel"
PERFORMER "Bootsy Collins"
ISRC NLB931000565
INDEX 01 65:31:74
TRACK 17 AUDIO
TITLE "Yummy, I Got The Munchies"
PERFORMER "Bootsy Collins"
ISRC NLB931000566
INDEX 01 72:29:69
 
Лог проверки качества / CDDA 100%
-----------------------
DON'T MODIFY THIS FILE
-----------------------
PERFORMER: auCDtect Task Manager, ver. 1.5.1RC6 build 1.5.1.7
Copyright (c) 2008-2010 y-soft. All rights reserved
http://y-soft.org
ANALYZER: auCDtect: CD records authenticity detector, version 0.8.2
Copyright (c) 2004 Oleg Berngardt. All rights reserved.
Copyright (c) 2004 Alexander Djourik. All rights reserved.
FILE: Bootsy Collins - Tha Funk Capital Of The World.flac
Size: 559580644 Hash: FA70DEA6CF7B8F61C5DAC69706C54386 Accuracy: -m0
Conclusion: CDDA 100%
Signature: A924B68AC44EEF60292817390C9EF873E3B4A438
 
Скриншот спектра частот
Приватный:
Нет (DHT включён)
Размер:
581.18 Мб (609,409,205 байт) » файлов: 13
Участники:
0 раздают, 0 качают (0 участников всего)
Внешние участники:
5 раздают, 2 качают (7 участников всего) [ Обновить ]
Есть вопросы - пишите личное сообщение пользователю M0p94ok.
11:13
70
Нет комментариев. Ваш будет первым!