Поиск

(soul) [CD] Marvin Gaye: I Want You (1976, CD Rel. 1986) / Marvin Gaye & His Women: 21 Classic Duets (1985), FLAC (tracks+.cue), lossless

(soul) [CD] Marvin Gaye: I Want You (1976, CD Rel. 1986) / Marvin Gaye & His Women: 21 Classic Duets (1985), FLAC (tracks+.cue), lossless
Треклист:
Marvin Gaye / I Want You (1976) / Marvin Gaye & His Women: 21 Classic Duets (1985) Жанр: soul
Носитель: CD
Страна исполнителя (группы): USA
Аудиокодек: FLAC (*.flac)
Тип рипа: tracks+.cue
Битрейт аудио: lossless
Источник (релизер): рипы и диски мои
Наличие сканов в содержимом раздачи: фото
 
1976 / I Want You / Tamla Motown / WD72027 / CD Rel. 1986
Треклист:
01. I Want You (vocal) (4:36)
02. Come Live With Me Angel (6:31)
03. After The Dance (instrumental) (4:26)
04. Feel All My Love Inside (3:23)
05. I Wanna Be Where You Are (1:19)
06. I Want You (intro jam) (0:20)
07. All The Way 'Round (3:51)
08. Since I Had You (4:05)
09. Soon I'll Be Loving You Again (3:15)
10. I want you (intro jam) (1:41)
11. After The Dance (vocal) (4:32)
Total Time - 00:37:58
 
Лог создания рипа
Exact Audio Copy V1.0 beta 1 from 15. November 2010
EAC extraction logfile from 17. July 2016, 18:31
Marvin Gaye / I Want You
Used drive : Optiarc DVD RW AD-7200A Adapter: 0 ID: 0
Read mode : Secure
Utilize accurate stream : Yes
Defeat audio cache : Yes
Make use of C2 pointers : No
Read offset correction : 48
Overread into Lead-In and Lead-Out : No
Fill up missing offset samples with silence : Yes
Delete leading and trailing silent blocks : No
Null samples used in CRC calculations : Yes
Used interface : Native Win32 interface for Win NT & 2000
Gap handling : Appended to previous track
Used output format : User Defined Encoder
Selected bitrate : 768 kBit/s
Quality : High
Add ID3 tag : No
Command line compressor : C:\Program Files\Exact Audio Copy\Flac\flac.exe
Additional command line options : -8 -V -T "ARTIST=%a" -T "TITLE=%t" -T "ALBUM=%g" -T "DATE=%y" -T "TRACKNUMBER=%n" -T "TOTALTRACKS=%x" -T "GENRE=%m" -T "ALBUMARTIST=%v" -T "ALBUM ARTIST=%v" -T "COMMENT=EAC Secure Mode, Test & Copy, AccurateRip, FLAC -8" %s
TOC of the extracted CD
Track | Start | Length | Start sector | End sector
---------------------------------------------------------
1 | 0:00.00 | 4:35.57 | 0 | 20681
2 | 4:35.57 | 6:30.73 | 20682 | 50004
3 | 11:06.55 | 4:25.57 | 50005 | 69936
4 | 15:32.37 | 3:22.60 | 69937 | 85146
5 | 18:55.22 | 1:19.30 | 85147 | 91101
6 | 20:14.52 | 0:19.50 | 91102 | 92576
7 | 20:34.27 | 3:50.60 | 92577 | 109886
8 | 24:25.12 | 4:05.10 | 109887 | 128271
9 | 28:30.22 | 3:14.60 | 128272 | 142881
10 | 31:45.07 | 1:40.53 | 142882 | 150434
11 | 33:25.60 | 4:32.15 | 150435 | 170849
Track 1
Filename D:\Marvin Gaye\Marvin Gaye - I Want You (1976) [FLAC]\01 - I Want You (vocal).wav
Pre-gap length 0:00:02.00
Peak level 81.6 %
Extraction speed 2.3 X
Track quality 100.0 %
Test CRC B77929ED
Copy CRC B77929ED
Accurately ripped (confidence 2) [0D925185]
Copy OK
Track 2
Filename D:\Marvin Gaye\Marvin Gaye - I Want You (1976) [FLAC]\02 - Come Live With Me Angel.wav
Pre-gap length 0:00:01.17
Peak level 66.4 %
Extraction speed 2.8 X
Track quality 100.0 %
Test CRC 076A7022
Copy CRC 076A7022
Accurately ripped (confidence 2) [E7F6BDA5]
Copy OK
Track 3
Filename D:\Marvin Gaye\Marvin Gaye - I Want You (1976) [FLAC]\03 - After The Dance (instrumental).wav
Pre-gap length 0:00:02.00
Peak level 67.2 %
Extraction speed 3.0 X
Track quality 100.0 %
Test CRC D3539646
Copy CRC D3539646
Accurately ripped (confidence 2) [46897DC3]
Copy OK
Track 4
Filename D:\Marvin Gaye\Marvin Gaye - I Want You (1976) [FLAC]\04 - Feel All My Love Inside.wav
Pre-gap length 0:00:02.32
Peak level 66.3 %
Extraction speed 3.0 X
Track quality 100.0 %
Test CRC E981B8DB
Copy CRC E981B8DB
Accurately ripped (confidence 2) [F7CBD06C]
Copy OK
Track 5
Filename D:\Marvin Gaye\Marvin Gaye - I Want You (1976) [FLAC]\05 - I Wanna Be Where You Are.wav
Peak level 55.0 %
Extraction speed 2.5 X
Track quality 100.0 %
Test CRC A97B07E5
Copy CRC A97B07E5
Accurately ripped (confidence 2) [A1017CBC]
Copy OK
Track 6
Filename D:\Marvin Gaye\Marvin Gaye - I Want You (1976) [FLAC]\06 - I Want You (intro jam).wav
Pre-gap length 0:00:02.45
Peak level 39.9 %
Extraction speed 1.3 X
Track quality 100.0 %
Test CRC A8E7B26D
Copy CRC A8E7B26D
Accurately ripped (confidence 2) [6F5FA40E]
Copy OK
Track 7
Filename D:\Marvin Gaye\Marvin Gaye - I Want You (1976) [FLAC]\07 - All The Way 'Round.wav
Peak level 81.8 %
Extraction speed 3.3 X
Track quality 100.0 %
Test CRC 26EC7B9E
Copy CRC 26EC7B9E
Accurately ripped (confidence 2) [5C98B1F9]
Copy OK
Track 8
Filename D:\Marvin Gaye\Marvin Gaye - I Want You (1976) [FLAC]\08 - Since I Had You.wav
Pre-gap length 0:00:01.07
Peak level 66.9 %
Extraction speed 3.6 X
Track quality 100.0 %
Test CRC 0DCA3E20
Copy CRC 0DCA3E20
Accurately ripped (confidence 2) [8B7B0F1D]
Copy OK
Track 9
Filename D:\Marvin Gaye\Marvin Gaye - I Want You (1976) [FLAC]\09 - Soon I'll Be Loving You Again.wav
Pre-gap length 0:00:02.47
Peak level 74.6 %
Extraction speed 3.6 X
Track quality 100.0 %
Test CRC 7E8C2FC9
Copy CRC 7E8C2FC9
Accurately ripped (confidence 2) [DB8AD29B]
Copy OK
Track 10
Filename D:\Marvin Gaye\Marvin Gaye - I Want You (1976) [FLAC]\10 - I want you (intro jam).wav
Pre-gap length 0:00:02.37
Peak level 62.1 %
Extraction speed 3.2 X
Track quality 100.0 %
Test CRC 40661B48
Copy CRC 40661B48
Accurately ripped (confidence 2) [121E1BB4]
Copy OK
Track 11
Filename D:\Marvin Gaye\Marvin Gaye - I Want You (1976) [FLAC]\11 - After The Dance (vocal).wav
Peak level 64.2 %
Extraction speed 4.0 X
Track quality 100.0 %
Test CRC A7560461
Copy CRC A7560461
Accurately ripped (confidence 2) [7F9B2294]
Copy OK
All tracks accurately ripped
No errors occurred
End of status report
==== Log checksum 6835A953A10F0DB4F92D6F4BA59AEE1F2BC62C59390263A94C06C8DCE1F10A6A ====
 
Содержание индексной карты (.CUE)
REM GENRE Soul
REM DATE 1976
REM DISCID 8F08E60B
REM COMMENT "ExactAudioCopy v1.0b1"
PERFORMER "Marvin Gaye"
TITLE "I Want You"
FILE "01 - I Want You (vocal).wav" WAVE
TRACK 01 AUDIO
TITLE "I Want You (vocal)"
PERFORMER "Marvin Gaye"
INDEX 01 00:00:00
TRACK 02 AUDIO
TITLE "Come Live With Me Angel"
PERFORMER "Marvin Gaye"
INDEX 00 04:34:40
FILE "02 - Come Live With Me Angel.wav" WAVE
INDEX 01 00:00:00
TRACK 03 AUDIO
TITLE "After The Dance (instrumental)"
PERFORMER "Marvin Gaye"
INDEX 00 06:28:73
FILE "03 - After The Dance (instrumental).wav" WAVE
INDEX 01 00:00:00
TRACK 04 AUDIO
TITLE "Feel All My Love Inside"
PERFORMER "Marvin Gaye"
INDEX 00 04:23:25
FILE "04 - Feel All My Love Inside.wav" WAVE
INDEX 01 00:00:00
FILE "05 - I Wanna Be Where You Are.wav" WAVE
TRACK 05 AUDIO
TITLE "I Wanna Be Where You Are"
PERFORMER "Marvin Gaye"
INDEX 01 00:00:00
TRACK 06 AUDIO
TITLE "I Want You (intro jam)"
PERFORMER "Marvin Gaye"
INDEX 00 01:16:60
FILE "06 - I Want You (intro jam).wav" WAVE
INDEX 01 00:00:00
FILE "07 - All The Way 'Round.wav" WAVE
TRACK 07 AUDIO
TITLE "All The Way 'Round"
PERFORMER "Marvin Gaye"
INDEX 01 00:00:00
TRACK 08 AUDIO
TITLE "Since I Had You"
PERFORMER "Marvin Gaye"
INDEX 00 03:49:53
FILE "08 - Since I Had You.wav" WAVE
INDEX 01 00:00:00
TRACK 09 AUDIO
TITLE "Soon I'll Be Loving You Again"
PERFORMER "Marvin Gaye"
INDEX 00 04:02:38
FILE "09 - Soon I'll Be Loving You Again.wav" WAVE
INDEX 01 00:00:00
TRACK 10 AUDIO
TITLE "I want you (intro jam)"
PERFORMER "Marvin Gaye"
INDEX 00 03:12:23
FILE "10 - I want you (intro jam).wav" WAVE
INDEX 01 00:00:00
FILE "11 - After The Dance (vocal).wav" WAVE
TRACK 11 AUDIO
TITLE "After The Dance (vocal)"
PERFORMER "Marvin Gaye"
INDEX 01 00:00:00
 
compil. 1985 / Marvin Gaye & His Women: 21 Classic Duets / Motown / WD72397 / CD Rel. 1987
Треклист
01. You're A Special Part of Me (Diana Ross) (3:40)
02. My Mistake (Was To Love You) (Diana Ross) (2:57)
03. Once Upon A Time (Mary Wells) (2:32)
04. What's The Matter With You Baby (Mary Wells) (2:29)
05. What Good Am I Without You (Opus 1) (Kim Weston) (2:51)
06. It Takes Two (Kim Weston) (3:00)
07. It's Got To Be A Miracle (This Thing Called Love) (Kim Weston) (3:30)
08. I Want You 'Round (Kim Weston) (2:25)
09. Ain't No Mountain High Enough (Tammy Terrell) (2:30)
10. Your Precious Love (Tammy Terrell) (3:04)
11. If I Could Build My Whole World Around You (Tammy Terrell) (2:22)
12. Ain't Nothing Like The Real Thing (Tammy Terrell) (2:17)
13. You're All I Need To Get By (Tammy Terrell) (2:51)
14. Keep On Lovin' Me Honey (Tammy Terrell) (2:33)
15. Good Lovin' Ain't Easy To Come By (Tammy Terrell) (2:28)
16. What You Gave Me (Tammy Terrell) (2:44)
17. If This World Were Mine (Tammy Terrell) (2:44)
18. California Soul (Tammy Terrell) (2:50)
19. The Onion Song (Tammy Terrell) (3:00)
20. Two Can Have A Party (Tammy Terrell) (2:14)
21. Little Ole Boy, Little Ole Girl (Tammy Terrell) (2:43)
Total Time - 00:57:44
 
Лог создания рипа
Exact Audio Copy V1.0 beta 1 from 15. November 2010
EAC extraction logfile from 18. July 2016, 0:30
Marvin Gaye / Marvin Gaye & His Women: 21 Classic Duets
Used drive : Optiarc DVD RW AD-7200A Adapter: 0 ID: 0
Read mode : Secure
Utilize accurate stream : Yes
Defeat audio cache : Yes
Make use of C2 pointers : No
Read offset correction : 48
Overread into Lead-In and Lead-Out : No
Fill up missing offset samples with silence : Yes
Delete leading and trailing silent blocks : No
Null samples used in CRC calculations : Yes
Used interface : Native Win32 interface for Win NT & 2000
Gap handling : Appended to previous track
Used output format : User Defined Encoder
Selected bitrate : 768 kBit/s
Quality : High
Add ID3 tag : No
Command line compressor : C:\Program Files\Exact Audio Copy\Flac\flac.exe
Additional command line options : -8 -V -T "ARTIST=%a" -T "TITLE=%t" -T "ALBUM=%g" -T "DATE=%y" -T "TRACKNUMBER=%n" -T "TOTALTRACKS=%x" -T "GENRE=%m" -T "ALBUMARTIST=%v" -T "ALBUM ARTIST=%v" -T "COMMENT=EAC Secure Mode, Test & Copy, AccurateRip, FLAC -8" %s
TOC of the extracted CD
Track | Start | Length | Start sector | End sector
---------------------------------------------------------
1 | 0:00.32 | 3:39.58 | 32 | 16514
2 | 3:40.15 | 2:57.35 | 16515 | 29824
3 | 6:37.50 | 2:31.60 | 29825 | 41209
4 | 9:09.35 | 2:28.65 | 41210 | 52374
5 | 11:38.25 | 2:50.65 | 52375 | 65189
6 | 14:29.15 | 3:00.32 | 65190 | 78721
7 | 17:29.47 | 3:30.23 | 78722 | 94494
8 | 20:59.70 | 2:24.50 | 94495 | 105344
9 | 23:24.45 | 2:29.42 | 105345 | 116561
10 | 25:54.12 | 3:04.33 | 116562 | 130394
11 | 28:58.45 | 2:22.27 | 130395 | 141071
12 | 31:20.72 | 2:16.50 | 141072 | 151321
13 | 33:37.47 | 2:50.55 | 151322 | 164126
14 | 36:28.27 | 2:32.38 | 164127 | 175564
15 | 39:00.65 | 2:28.27 | 175565 | 186691
16 | 41:29.17 | 2:44.10 | 186692 | 199001
17 | 44:13.27 | 2:44.35 | 199002 | 211336
18 | 46:57.62 | 2:50.10 | 211337 | 224096
19 | 49:47.72 | 3:00.33 | 224097 | 237629
20 | 52:48.30 | 2:13.62 | 237630 | 247666
21 | 55:02.17 | 2:42.50 | 247667 | 259866
Track 1
Filename D:\Marvin Gaye\Marvin Gaye - Marvin Gaye & His Women ~ 21 Classic Duets (1985) [FLAC]\01 - You're A Special Part of Me (Diana Ross).wav
Pre-gap length 0:00:02.32
Peak level 87.0 %
Extraction speed 2.2 X
Track quality 100.0 %
Test CRC A396444D
Copy CRC A396444D
Accurately ripped (confidence 10) [87CD0630]
Copy OK
Track 2
Filename D:\Marvin Gaye\Marvin Gaye - Marvin Gaye & His Women ~ 21 Classic Duets (1985) [FLAC]\02 - My Mistake (Was To Love You) (Diana Ross).wav
Pre-gap length 0:00:01.50
Peak level 91.8 %
Extraction speed 2.4 X
Track quality 100.0 %
Test CRC 2F31C6FC
Copy CRC 2F31C6FC
Accurately ripped (confidence 10) [4F0ACBDF]
Copy OK
Track 3
Filename D:\Marvin Gaye\Marvin Gaye - Marvin Gaye & His Women ~ 21 Classic Duets (1985) [FLAC]\03 - Once Upon A Time (Mary Wells).wav
Pre-gap length 0:00:01.70
Peak level 80.5 %
Extraction speed 2.5 X
Track quality 100.0 %
Test CRC D6047A43
Copy CRC D6047A43
Accurately ripped (confidence 10) [9495C917]
Copy OK
Track 4
Filename D:\Marvin Gaye\Marvin Gaye - Marvin Gaye & His Women ~ 21 Classic Duets (1985) [FLAC]\04 - What's The Matter With You Baby (Mary Wells).wav
Pre-gap length 0:00:01.20
Peak level 87.2 %
Extraction speed 2.6 X
Track quality 100.0 %
Test CRC 9B905CF0
Copy CRC 9B905CF0
Accurately ripped (confidence 10) [B6FC84AA]
Copy OK
Track 5
Filename D:\Marvin Gaye\Marvin Gaye - Marvin Gaye & His Women ~ 21 Classic Duets (1985) [FLAC]\05 - What Good Am I Without You (Opus 1) (Kim Weston).wav
Pre-gap length 0:00:02.33
Peak level 84.5 %
Extraction speed 2.8 X
Track quality 100.0 %
Test CRC C0C331FD
Copy CRC C0C331FD
Accurately ripped (confidence 9) [B967F786]
Copy OK
Track 6
Filename D:\Marvin Gaye\Marvin Gaye - Marvin Gaye & His Women ~ 21 Classic Duets (1985) [FLAC]\06 - It Takes Two (Kim Weston).wav
Pre-gap length 0:00:01.63
Peak level 83.7 %
Extraction speed 3.0 X
Track quality 100.0 %
Test CRC 61E1AF34
Copy CRC 61E1AF34
Accurately ripped (confidence 10) [6EA6E374]
Copy OK
Track 7
Filename D:\Marvin Gaye\Marvin Gaye - Marvin Gaye & His Women ~ 21 Classic Duets (1985) [FLAC]\07 - It's Got To Be A Miracle (This Thing Called Love) (Kim Weston).wav
Pre-gap length 0:00:01.50
Peak level 100.0 %
Extraction speed 3.2 X
Track quality 100.0 %
Test CRC 74AD9329
Copy CRC 74AD9329
Accurately ripped (confidence 10) [B1DFB22C]
Copy OK
Track 8
Filename D:\Marvin Gaye\Marvin Gaye - Marvin Gaye & His Women ~ 21 Classic Duets (1985) [FLAC]\08 - I Want You 'Round (Kim Weston).wav
Pre-gap length 0:00:02.05
Peak level 100.0 %
Extraction speed 3.1 X
Track quality 100.0 %
Test CRC A7BF354E
Copy CRC A7BF354E
Accurately ripped (confidence 10) [CB8F08ED]
Copy OK
Track 9
Filename D:\Marvin Gaye\Marvin Gaye - Marvin Gaye & His Women ~ 21 Classic Duets (1985) [FLAC]\09 - Ain't No Mountain High Enough (Tammy Terrell).wav
Pre-gap length 0:00:01.68
Peak level 100.0 %
Extraction speed 3.2 X
Track quality 100.0 %
Test CRC 163BAD76
Copy CRC 163BAD76
Accurately ripped (confidence 10) [EF8EF687]
Copy OK
Track 10
Filename D:\Marvin Gaye\Marvin Gaye - Marvin Gaye & His Women ~ 21 Classic Duets (1985) [FLAC]\10 - Your Precious Love (Tammy Terrell).wav
Pre-gap length 0:00:01.57
Peak level 100.0 %
Extraction speed 3.5 X
Track quality 100.0 %
Test CRC 069CD37C
Copy CRC 069CD37C
Accurately ripped (confidence 9) [E79F3B83]
Copy OK
Track 11
Filename D:\Marvin Gaye\Marvin Gaye - Marvin Gaye & His Women ~ 21 Classic Duets (1985) [FLAC]\11 - If I Could Build My Whole World Around You (Tammy Terrell).wav
Pre-gap length 0:00:01.53
Peak level 88.2 %
Extraction speed 3.4 X
Track quality 100.0 %
Test CRC E0CD36B0
Copy CRC E0CD36B0
Accurately ripped (confidence 10) [1BDF80F3]
Copy OK
Track 12
Filename D:\Marvin Gaye\Marvin Gaye - Marvin Gaye & His Women ~ 21 Classic Duets (1985) [FLAC]\12 - Ain't Nothing Like The Real Thing (Tammy Terrell).wav
Pre-gap length 0:00:01.47
Peak level 91.2 %
Extraction speed 3.4 X
Track quality 100.0 %
Test CRC C1FE5A71
Copy CRC C1FE5A71
Accurately ripped (confidence 10) [29369641]
Copy OK
Track 13
Filename D:\Marvin Gaye\Marvin Gaye - Marvin Gaye & His Women ~ 21 Classic Duets (1985) [FLAC]\13 - You're All I Need To Get By (Tammy Terrell).wav
Pre-gap length 0:00:02.02
Peak level 97.7 %
Extraction speed 3.7 X
Track quality 100.0 %
Test CRC D3EDABFA
Copy CRC D3EDABFA
Accurately ripped (confidence 10) [F5CE3044]
Copy OK
Track 14
Filename D:\Marvin Gaye\Marvin Gaye - Marvin Gaye & His Women ~ 21 Classic Duets (1985) [FLAC]\14 - Keep On Lovin' Me Honey (Tammy Terrell).wav
Pre-gap length 0:00:02.22
Peak level 86.0 %
Extraction speed 3.8 X
Track quality 100.0 %
Test CRC 4091163A
Copy CRC 4091163A
Accurately ripped (confidence 10) [E7BC245E]
Copy OK
Track 15
Filename D:\Marvin Gaye\Marvin Gaye - Marvin Gaye & His Women ~ 21 Classic Duets (1985) [FLAC]\15 - Good Lovin' Ain't Easy To Come By (Tammy Terrell).wav
Pre-gap length 0:00:02.08
Peak level 79.9 %
Extraction speed 3.7 X
Track quality 100.0 %
Test CRC 6ACC8A30
Copy CRC 6ACC8A30
Accurately ripped (confidence 9) [095B4E57]
Copy OK
Track 16
Filename D:\Marvin Gaye\Marvin Gaye - Marvin Gaye & His Women ~ 21 Classic Duets (1985) [FLAC]\16 - What You Gave Me (Tammy Terrell).wav
Pre-gap length 0:00:01.62
Peak level 78.3 %
Extraction speed 4.0 X
Track quality 100.0 %
Test CRC 0304F55D
Copy CRC 0304F55D
Accurately ripped (confidence 10) [671447D3]
Copy OK
Track 17
Filename D:\Marvin Gaye\Marvin Gaye - Marvin Gaye & His Women ~ 21 Classic Duets (1985) [FLAC]\17 - If This World Were Mine (Tammy Terrell).wav
Pre-gap length 0:00:01.62
Peak level 81.5 %
Extraction speed 4.1 X
Track quality 100.0 %
Test CRC 4FF36E6F
Copy CRC 4FF36E6F
Accurately ripped (confidence 9) [46866ABA]
Copy OK
Track 18
Filename D:\Marvin Gaye\Marvin Gaye - Marvin Gaye & His Women ~ 21 Classic Duets (1985) [FLAC]\18 - California Soul (Tammy Terrell).wav
Pre-gap length 0:00:02.27
Peak level 87.7 %
Extraction speed 4.2 X
Track quality 100.0 %
Test CRC AE4A35A4
Copy CRC AE4A35A4
Accurately ripped (confidence 10) [A413DAA1]
Copy OK
Track 19
Filename D:\Marvin Gaye\Marvin Gaye - Marvin Gaye & His Women ~ 21 Classic Duets (1985) [FLAC]\19 - The Onion Song (Tammy Terrell).wav
Pre-gap length 0:00:01.35
Peak level 89.9 %
Extraction speed 4.3 X
Track quality 100.0 %
Test CRC 4D186274
Copy CRC 4D186274
Accurately ripped (confidence 9) [E0DD7614]
Copy OK
Track 20
Filename D:\Marvin Gaye\Marvin Gaye - Marvin Gaye & His Women ~ 21 Classic Duets (1985) [FLAC]\20 - Two Can Have A Party (Tammy Terrell).wav
Pre-gap length 0:00:02.73
Peak level 94.1 %
Extraction speed 3.3 X
Track quality 99.9 %
Test CRC 25609082
Copy CRC 25609082
Accurately ripped (confidence 8) [93F34C5D]
Copy OK
Track 21
Filename D:\Marvin Gaye\Marvin Gaye - Marvin Gaye & His Women ~ 21 Classic Duets (1985) [FLAC]\21 - Little Ole Boy, Little Ole Girl (Tammy Terrell).wav
Pre-gap length 0:00:01.42
Peak level 100.0 %
Extraction speed 4.4 X
Track quality 100.0 %
Test CRC 2D9D7998
Copy CRC 2D9D7998
Accurately ripped (confidence 10) [1250A15D]
Copy OK
All tracks accurately ripped
No errors occurred
End of status report
==== Log checksum 8FA5CBF1A3BC4BA8A363BABDBD81E8648636887474B00A08784C7C82DDA6F31A ====
 
Содержание индексной карты (.CUE)
REM GENRE Soul
REM DATE 1985
REM DISCID 160D8815
REM COMMENT "ExactAudioCopy v1.0b1"
PERFORMER "Marvin Gaye"
TITLE "Marvin Gaye & His Women: 21 Classic Duets"
FILE "01 - You're A Special Part of Me (Diana Ross).wav" WAVE
TRACK 01 AUDIO
TITLE "You're A Special Part of Me (Diana Ross)"
PERFORMER "Marvin Gaye"
PREGAP 00:00:32
INDEX 01 00:00:00
TRACK 02 AUDIO
TITLE "My Mistake (Was To Love You) (Diana Ross)"
PERFORMER "Marvin Gaye"
INDEX 00 03:38:08
FILE "02 - My Mistake (Was To Love You) (Diana Ross).wav" WAVE
INDEX 01 00:00:00
TRACK 03 AUDIO
TITLE "Once Upon A Time (Mary Wells)"
PERFORMER "Marvin Gaye"
INDEX 00 02:55:40
FILE "03 - Once Upon A Time (Mary Wells).wav" WAVE
INDEX 01 00:00:00
TRACK 04 AUDIO
TITLE "What's The Matter With You Baby (Mary Wells)"
PERFORMER "Marvin Gaye"
INDEX 00 02:30:40
FILE "04 - What's The Matter With You Baby (Mary Wells).wav" WAVE
INDEX 01 00:00:00
TRACK 05 AUDIO
TITLE "What Good Am I Without You (Opus 1) (Kim Weston)"
PERFORMER "Marvin Gaye"
INDEX 00 02:26:32
FILE "05 - What Good Am I Without You (Opus 1) (Kim Weston).wav" WAVE
INDEX 01 00:00:00
TRACK 06 AUDIO
TITLE "It Takes Two (Kim Weston)"
PERFORMER "Marvin Gaye"
INDEX 00 02:49:02
FILE "06 - It Takes Two (Kim Weston).wav" WAVE
INDEX 01 00:00:00
TRACK 07 AUDIO
TITLE "It's Got To Be A Miracle (This Thing Called Love) (Kim Weston)"
PERFORMER "Marvin Gaye"
INDEX 00 02:58:57
FILE "07 - It's Got To Be A Miracle (This Thing Called Love) (Kim Weston).wav" WAVE
INDEX 01 00:00:00
TRACK 08 AUDIO
TITLE "I Want You 'Round (Kim Weston)"
PERFORMER "Marvin Gaye"
INDEX 00 03:28:18
FILE "08 - I Want You 'Round (Kim Weston).wav" WAVE
INDEX 01 00:00:00
TRACK 09 AUDIO
TITLE "Ain't No Mountain High Enough (Tammy Terrell)"
PERFORMER "Marvin Gaye"
INDEX 00 02:22:57
FILE "09 - Ain't No Mountain High Enough (Tammy Terrell).wav" WAVE
INDEX 01 00:00:00
TRACK 10 AUDIO
TITLE "Your Precious Love (Tammy Terrell)"
PERFORMER "Marvin Gaye"
INDEX 00 02:27:60
FILE "10 - Your Precious Love (Tammy Terrell).wav" WAVE
INDEX 01 00:00:00
TRACK 11 AUDIO
TITLE "If I Could Build My Whole World Around You (Tammy Terrell)"
PERFORMER "Marvin Gaye"
INDEX 00 03:02:55
FILE "11 - If I Could Build My Whole World Around You (Tammy Terrell).wav" WAVE
INDEX 01 00:00:00
TRACK 12 AUDIO
TITLE "Ain't Nothing Like The Real Thing (Tammy Terrell)"
PERFORMER "Marvin Gaye"
INDEX 00 02:20:55
FILE "12 - Ain't Nothing Like The Real Thing (Tammy Terrell).wav" WAVE
INDEX 01 00:00:00
TRACK 13 AUDIO
TITLE "You're All I Need To Get By (Tammy Terrell)"
PERFORMER "Marvin Gaye"
INDEX 00 02:14:48
FILE "13 - You're All I Need To Get By (Tammy Terrell).wav" WAVE
INDEX 01 00:00:00
TRACK 14 AUDIO
TITLE "Keep On Lovin' Me Honey (Tammy Terrell)"
PERFORMER "Marvin Gaye"
INDEX 00 02:48:33
FILE "14 - Keep On Lovin' Me Honey (Tammy Terrell).wav" WAVE
INDEX 01 00:00:00
TRACK 15 AUDIO
TITLE "Good Lovin' Ain't Easy To Come By (Tammy Terrell)"
PERFORMER "Marvin Gaye"
INDEX 00 02:30:30
FILE "15 - Good Lovin' Ain't Easy To Come By (Tammy Terrell).wav" WAVE
INDEX 01 00:00:00
TRACK 16 AUDIO
TITLE "What You Gave Me (Tammy Terrell)"
PERFORMER "Marvin Gaye"
INDEX 00 02:26:40
FILE "16 - What You Gave Me (Tammy Terrell).wav" WAVE
INDEX 01 00:00:00
TRACK 17 AUDIO
TITLE "If This World Were Mine (Tammy Terrell)"
PERFORMER "Marvin Gaye"
INDEX 00 02:42:23
FILE "17 - If This World Were Mine (Tammy Terrell).wav" WAVE
INDEX 01 00:00:00
TRACK 18 AUDIO
TITLE "California Soul (Tammy Terrell)"
PERFORMER "Marvin Gaye"
INDEX 00 02:42:08
FILE "18 - California Soul (Tammy Terrell).wav" WAVE
INDEX 01 00:00:00
TRACK 19 AUDIO
TITLE "The Onion Song (Tammy Terrell)"
PERFORMER "Marvin Gaye"
INDEX 00 02:48:50
FILE "19 - The Onion Song (Tammy Terrell).wav" WAVE
INDEX 01 00:00:00
TRACK 20 AUDIO
TITLE "Two Can Have A Party (Tammy Terrell)"
PERFORMER "Marvin Gaye"
INDEX 00 02:57:35
FILE "20 - Two Can Have A Party (Tammy Terrell).wav" WAVE
INDEX 01 00:00:00
TRACK 21 AUDIO
TITLE "Little Ole Boy, Little Ole Girl (Tammy Terrell)"
PERFORMER "Marvin Gaye"
INDEX 00 02:12:20
FILE "21 - Little Ole Boy, Little Ole Girl (Tammy Terrell).wav" WAVE
INDEX 01 00:00:00
Приватный:
Нет (DHT включён)
Размер:
573.01 Мб (600,841,756 байт) » файлов: 44
Участники:
0 раздают, 0 качают (0 участников всего)
Внешние участники:
3 раздают, 1 качают (4 участников всего) [ Обновить ]
Есть вопросы - пишите личное сообщение пользователю M0p94ok.
11:14
71
Нет комментариев. Ваш будет первым!